  0
SECTION
  2
HEADER
  9
$ACADVER
  1
AC1018
  9
$ACADMAINTVER
 70
   104
  9
$DWGCODEPAGE
  3
ANSI_936
  9
$LASTSAVEDBY
  1
Administrator
  9
$INSBASE
 10
0.0
 20
0.0
 30
0.0
  9
$EXTMIN
 10
118.1259561198038
 20
-901.4257272539238
 30
0.0
  9
$EXTMAX
 10
1639.95599754813
 20
1310.960843336038
 30
0.0
  9
$LIMMIN
 10
0.0
 20
0.0
  9
$LIMMAX
 10
12.0
 20
9.0
  9
$ORTHOMODE
 70
     1
  9
$REGENMODE
 70
     1
  9
$FILLMODE
 70
     1
  9
$QTEXTMODE
 70
     0
  9
$MIRRTEXT
 70
     0
  9
$LTSCALE
 40
1.0
  9
$ATTMODE
 70
     1
  9
$TEXTSIZE
 40
0.2
  9
$TRACEWID
 40
0.05
  9
$TEXTSTYLE
  7
STANDARD
  9
$CLAYER
  8
标注
  9
$CELTYPE
  6
ByLayer
  9
$CECOLOR
 62
   256
  9
$CELTSCALE
 40
1.0
  9
$DISPSILH
 70
     0
  9
$DIMSCALE
 40
1.0
  9
$DIMASZ
 40
0.65
  9
$DIMEXO
 40
0.88
  9
$DIMDLI
 40
0.015
  9
$DIMRND
 40
0.0
  9
$DIMDLE
 40
0.0
  9
$DIMEXE
 40
0.32
  9
$DIMTP
 40
0.0
  9
$DIMTM
 40
0.0
  9
$DIMTXT
 40
0.65
  9
$DIMCEN
 40
0.09
  9
$DIMTSZ
 40
0.0
  9
$DIMTOL
 70
     0
  9
$DIMLIM
 70
     0
  9
$DIMTIH
 70
     0
  9
$DIMTOH
 70
     0
  9
$DIMSE1
 70
     0
  9
$DIMSE2
 70
     0
  9
$DIMTAD
 70
     0
  9
$DIMZIN
 70
     8
  9
$DIMBLK
  1

  9
$DIMASO
 70
     1
  9
$DIMSHO
 70
     1
  9
$DIMPOST
  1
"
  9
$DIMAPOST
  1
"
  9
$DIMALT
 70
     0
  9
$DIMALTD
 70
     1
  9
$DIMALTF
 40
0.03937
  9
$DIMLFAC
 40
1.0
  9
$DIMTOFL
 70
     1
  9
$DIMTVP
 40
0.0
  9
$DIMTIX
 70
     0
  9
$DIMSOXD
 70
     0
  9
$DIMSAH
 70
     0
  9
$DIMBLK1
  1

  9
$DIMBLK2
  1

  9
$DIMSTYLE
  2
副本STANDARD
  9
$DIMCLRD
 70
   256
  9
$DIMCLRE
 70
   256
  9
$DIMCLRT
 70
   256
  9
$DIMTFAC
 40
1.0
  9
$DIMGAP
 40
0.3
  9
$DIMJUST
 70
     0
  9
$DIMSD1
 70
     0
  9
$DIMSD2
 70
     0
  9
$DIMTOLJ
 70
     1
  9
$DIMTZIN
 70
     8
  9
$DIMALTZ
 70
     8
  9
$DIMALTTZ
 70
     8
  9
$DIMUPT
 70
     0
  9
$DIMDEC
 70
     3
  9
$DIMTDEC
 70
     3
  9
$DIMALTU
 70
     2
  9
$DIMALTTD
 70
     1
  9
$DIMTXSTY
  7
STANDARD
  9
$DIMAUNIT
 70
     0
  9
$DIMADEC
 70
     0
  9
$DIMALTRND
 40
0.0
  9
$DIMAZIN
 70
     0
  9
$DIMDSEP
 70
    46
  9
$DIMATFIT
 70
     3
  9
$DIMFRAC
 70
     2
  9
$DIMLDRBLK
  1

  9
$DIMLUNIT
 70
     5
  9
$DIMLWD
 70
    -2
  9
$DIMLWE
 70
    -2
  9
$DIMTMOVE
 70
     2
  9
$LUNITS
 70
     2
  9
$LUPREC
 70
     4
  9
$SKETCHINC
 40
0.1
  9
$FILLETRAD
 40
0.0
  9
$AUNITS
 70
     0
  9
$AUPREC
 70
     0
  9
$MENU
  1
.
  9
$ELEVATION
 40
0.0
  9
$PELEVATION
 40
0.0
  9
$THICKNESS
 40
0.0
  9
$LIMCHECK
 70
     0
  9
$CHAMFERA
 40
0.0
  9
$CHAMFERB
 40
0.0
  9
$CHAMFERC
 40
0.0
  9
$CHAMFERD
 40
0.0
  9
$SKPOLY
 70
     0
  9
$TDCREATE
 40
2455434.724808658
  9
$TDUCREATE
 40
2455434.391475324
  9
$TDUPDATE
 40
2458690.397179688
  9
$TDUUPDATE
 40
2458690.063846354
  9
$TDINDWG
 40
0.7768537731
  9
$TDUSRTIMER
 40
0.7768358333
  9
$USRTIMER
 70
     1
  9
$ANGBASE
 50
0.0
  9
$ANGDIR
 70
     0
  9
$PDMODE
 70
     0
  9
$PDSIZE
 40
0.0
  9
$PLINEWID
 40
0.0
  9
$SPLFRAME
 70
     0
  9
$SPLINETYPE
 70
     6
  9
$SPLINESEGS
 70
     8
  9
$HANDSEED
  5
89C5
  9
$SURFTAB1
 70
     6
  9
$SURFTAB2
 70
     6
  9
$SURFTYPE
 70
     6
  9
$SURFU
 70
     6
  9
$SURFV
 70
     6
  9
$UCSBASE
  2

  9
$UCSNAME
  2

  9
$UCSORG
 10
0.0
 20
0.0
 30
0.0
  9
$UCSXDIR
 10
1.0
 20
0.0
 30
0.0
  9
$UCSYDIR
 10
0.0
 20
1.0
 30
0.0
  9
$UCSORTHOREF
  2

  9
$UCSORTHOVIEW
 70
     0
  9
$UCSORGTOP
 10
0.0
 20
0.0
 30
0.0
  9
$UCSORGBOTTOM
 10
0.0
 20
0.0
 30
0.0
  9
$UCSORGLEFT
 10
0.0
 20
0.0
 30
0.0
  9
$UCSORGRIGHT
 10
0.0
 20
0.0
 30
0.0
  9
$UCSORGFRONT
 10
0.0
 20
0.0
 30
0.0
  9
$UCSORGBACK
 10
0.0
 20
0.0
 30
0.0
  9
$PUCSBASE
  2

  9
$PUCSNAME
  2

  9
$PUCSORG
 10
0.0
 20
0.0
 30
0.0
  9
$PUCSXDIR
 10
1.0
 20
0.0
 30
0.0
  9
$PUCSYDIR
 10
0.0
 20
1.0
 30
0.0
  9
$PUCSORTHOREF
  2

  9
$PUCSORTHOVIEW
 70
     0
  9
$PUCSORGTOP
 10
0.0
 20
0.0
 30
0.0
  9
$PUCSORGBOTTOM
 10
0.0
 20
0.0
 30
0.0
  9
$PUCSORGLEFT
 10
0.0
 20
0.0
 30
0.0
  9
$PUCSORGRIGHT
 10
0.0
 20
0.0
 30
0.0
  9
$PUCSORGFRONT
 10
0.0
 20
0.0
 30
0.0
  9
$PUCSORGBACK
 10
0.0
 20
0.0
 30
0.0
  9
$USERI1
 70
     0
  9
$USERI2
 70
     0
  9
$USERI3
 70
     0
  9
$USERI4
 70
     0
  9
$USERI5
 70
     0
  9
$USERR1
 40
0.0
  9
$USERR2
 40
0.0
  9
$USERR3
 40
0.0
  9
$USERR4
 40
0.0
  9
$USERR5
 40
2.5
  9
$WORLDVIEW
 70
     1
  9
$SHADEDGE
 70
     3
  9
$SHADEDIF
 70
    70
  9
$TILEMODE
 70
     1
  9
$MAXACTVP
 70
    64
  9
$PINSBASE
 10
0.0
 20
0.0
 30
0.0
  9
$PLIMCHECK
 70
     0
  9
$PEXTMIN
 10
1.000000000000000E+20
 20
1.000000000000000E+20
 30
1.000000000000000E+20
  9
$PEXTMAX
 10
-1.000000000000000E+20
 20
-1.000000000000000E+20
 30
-1.000000000000000E+20
  9
$PLIMMIN
 10
0.0
 20
0.0
  9
$PLIMMAX
 10
12.0
 20
9.0
  9
$UNITMODE
 70
     0
  9
$VISRETAIN
 70
     1
  9
$PLINEGEN
 70
     0
  9
$PSLTSCALE
 70
     1
  9
$TREEDEPTH
 70
  3020
  9
$CMLSTYLE
  2
Standard
  9
$CMLJUST
 70
     0
  9
$CMLSCALE
 40
1.0
  9
$PROXYGRAPHICS
 70
     1
  9
$MEASUREMENT
 70
     0
  9
$CELWEIGHT
370
    -1
  9
$ENDCAPS
280
     0
  9
$JOINSTYLE
280
     0
  9
$LWDISPLAY
290
     0
  9
$INSUNITS
 70
     0
  9
$HYPERLINKBASE
  1

  9
$STYLESHEET
  1

  9
$XEDIT
290
     1
  9
$CEPSNTYPE
380
     0
  9
$PSTYLEMODE
290
     1
  9
$FINGERPRINTGUID
  2
{7BAC09DB-C4D0-41DB-8C07-4C6808ADD930}
  9
$VERSIONGUID
  2
{FB47D548-2B05-4236-BE5E-7BD5ABE15F57}
  9
$EXTNAMES
290
     1
  9
$PSVPSCALE
 40
0.0
  9
$OLESTARTUP
290
     0
  9
$SORTENTS
280
   127
  9
$INDEXCTL
280
     0
  9
$HIDETEXT
280
     0
  9
$XCLIPFRAME
290
     0
  9
$HALOGAP
280
     0
  9
$OBSCOLOR
 70
   257
  9
$OBSLTYPE
280
     0
  9
$INTERSECTIONDISPLAY
280
     0
  9
$INTERSECTIONCOLOR
 70
   257
  9
$DIMASSOC
280
     1
  9
$PROJECTNAME
  1

  0
ENDSEC
  0
SECTION
  2
CLASSES
  0
CLASS
  1
ACDBDICTIONARYWDFLT
  2
AcDbDictionaryWithDefault
  3
ObjectDBX Classes
 90
        0
 91
        1
280
     0
281
     0
  0
CLASS
  1
MATERIAL
  2
AcDbMaterial
  3
ObjectDBX Classes
 90
     1024
 91
        3
280
     0
281
     0
  0
CLASS
  1
VISUALSTYLE
  2
AcDbVisualStyle
  3
ObjectDBX Classes
 90
     4095
 91
       16
280
     0
281
     0
  0
CLASS
  1
SCALE
  2
AcDbScale
  3
ObjectDBX Classes
 90
     1153
 91
       33
280
     0
281
     0
  0
CLASS
  1
TABLESTYLE
  2
AcDbTableStyle
  3
ObjectDBX Classes
 90
     4095
 91
        1
280
     0
281
     0
  0
CLASS
  1
MLEADERSTYLE
  2
AcDbMLeaderStyle
  3
ACDB_MLEADERSTYLE_CLASS
 90
     4095
 91
        1
280
     0
281
     0
  0
CLASS
  1
VLO-VL
  2
vlo_VL
  3
VL|AutoLISP based application
 90
      129
 91
        1
280
     0
281
     0
  0
CLASS
  1
DICTIONARYVAR
  2
AcDbDictionaryVar
  3
ObjectDBX Classes
 90
        0
 91
        6
280
     0
281
     0
  0
CLASS
  1
CELLSTYLEMAP
  2
AcDbCellStyleMap
  3
ObjectDBX Classes
 90
     1152
 91
        1
280
     0
281
     0
  0
CLASS
  1
DIMASSOC
  2
AcDbDimAssoc
  3
"AcDbDimAssoc|Product Desc:     AcDim ARX App For Dimension|Company:          Autodesk, Inc.|WEB Address:      www.autodesk.com"
 90
        0
 91
        3
280
     0
281
     0
  0
CLASS
  1
SORTENTSTABLE
  2
AcDbSortentsTable
  3
ObjectDBX Classes
 90
        0
 91
        2
280
     0
281
     0
  0
CLASS
  1
ACDBPLACEHOLDER
  2
AcDbPlaceHolder
  3
ObjectDBX Classes
 90
        0
 91
        1
280
     0
281
     0
  0
CLASS
  1
LAYOUT
  2
AcDbLayout
  3
ObjectDBX Classes
 90
        0
 91
        2
280
     0
281
     0
  0
ENDSEC
  0
SECTION
  2
TABLES
  0
TABLE
  2
VPORT
  5
5F02
330
0
100
AcDbSymbolTable
 70
     1
  0
VPORT
  5
5F73
330
5F02
100
AcDbSymbolTableRecord
100
AcDbViewportTableRecord
  2
*ACTIVE
 70
     0
 10
0.0
 20
0.0
 11
1.0
 21
1.0
 12
1622.981291556847
 22
155.2776775288321
 13
0.0
 23
0.0
 14
0.5
 24
0.5
 15
0.5
 25
0.5
 16
0.0
 26
0.0
 36
1.0
 17
0.0
 27
0.0
 37
0.0
 40
62.57702970405444
 41
2.205741626794258
 42
50.0
 43
0.0
 44
0.0
 50
0.0
 51
0.0
 71
     0
 72
 20000
 73
     1
 74
     3
 75
     0
 76
     0
 77
     0
 78
     0
281
     0
 65
     1
110
0.0
120
0.0
130
0.0
111
1.0
121
0.0
131
0.0
112
0.0
122
1.0
132
0.0
 79
     0
146
0.0
  0
ENDTAB
  0
TABLE
  2
LTYPE
  5
5EFF
330
0
100
AcDbSymbolTable
 70
     5
  0
LTYPE
  5
5F5C
330
5EFF
100
AcDbSymbolTableRecord
100
AcDbLinetypeTableRecord
  2
ByBlock
 70
     0
  3

 72
    65
 73
     0
 40
0.0
  0
LTYPE
  5
5F5D
330
5EFF
100
AcDbSymbolTableRecord
100
AcDbLinetypeTableRecord
  2
ByLayer
 70
     0
  3

 72
    65
 73
     0
 40
0.0
  0
LTYPE
  5
5F5E
330
5EFF
100
AcDbSymbolTableRecord
100
AcDbLinetypeTableRecord
  2
CONTINUOUS
 70
     0
  3
Solid line
 72
    65
 73
     0
 40
0.0
  0
LTYPE
  5
5F74
330
5EFF
100
AcDbSymbolTableRecord
100
AcDbLinetypeTableRecord
  2
CENTER2
 70
     0
  3
Center (.5x) ___ _ ___ _ ___ _ ___ _ ___ _ ___
 72
    65
 73
     4
 40
28.575
 49
19.05
 74
     0
 49
-3.174999999999998
 74
     0
 49
3.174999999999998
 74
     0
 49
-3.174999999999998
 74
     0
  0
LTYPE
  5
5F75
330
5EFF
100
AcDbSymbolTableRecord
100
AcDbLinetypeTableRecord
  2
HIDDEN2
 70
     0
  3
Hidden (.5x) _ _ _ _ _ _ _ _ _ _ _ _ _ _ _ _ _
 72
    65
 73
     2
 40
0.1875
 49
0.125
 74
     0
 49
-0.0625
 74
     0
  0
LTYPE
  5
897A
330
5EFF
100
AcDbSymbolTableRecord
100
AcDbLinetypeTableRecord
  2
ACAD_ISO02W100
 70
     0
  3
ISO dash __ __ __ __ __ __ __ __ __ __ __ __ __
 72
    65
 73
     2
 40
15.0
 49
12.0
 74
     0
 49
-3.0
 74
     0
  0
ENDTAB
  0
TABLE
  2
LAYER
  5
5EFC
102
{ACAD_XDICTIONARY
360
61B7
102
}
330
0
100
AcDbSymbolTable
 70
     7
  0
LAYER
  5
5F56
102
{ACAD_XDICTIONARY
360
60F4
102
}
330
5EFC
100
AcDbSymbolTableRecord
100
AcDbLayerTableRecord
  2
0
 70
     0
 62
     7
  6
CONTINUOUS
370
    -3
390
5F09
  0
LAYER
  5
5F72
102
{ACAD_XDICTIONARY
360
60F6
102
}
330
5EFC
100
AcDbSymbolTableRecord
100
AcDbLayerTableRecord
  2
标注
 70
     0
 62
    80
  6
CONTINUOUS
370
    -3
390
5F09
  0
LAYER
  5
5F7D
102
{ACAD_XDICTIONARY
360
60F8
102
}
330
5EFC
100
AcDbSymbolTableRecord
100
AcDbLayerTableRecord
  2
中心线
 70
     0
 62
     1
  6
CENTER2
370
    -3
390
5F09
  0
LAYER
  5
5F7E
102
{ACAD_XDICTIONARY
360
60FA
102
}
330
5EFC
100
AcDbSymbolTableRecord
100
AcDbLayerTableRecord
  2
虚线
 70
     0
 62
     4
  6
ACAD_ISO02W100
370
    -3
390
5F09
  0
LAYER
  5
5F7F
330
5EFC
100
AcDbSymbolTableRecord
100
AcDbLayerTableRecord
  2
DEFPOINTS
 70
     0
 62
     7
  6
CONTINUOUS
290
     0
370
    -3
390
5F09
  0
LAYER
  5
5F80
102
{ACAD_XDICTIONARY
360
60FC
102
}
330
5EFC
100
AcDbSymbolTableRecord
100
AcDbLayerTableRecord
  2
细实线
 70
     0
 62
     7
  6
CONTINUOUS
370
    -3
390
5F09
  0
LAYER
  5
776F
330
5EFC
100
AcDbSymbolTableRecord
100
AcDbLayerTableRecord
  2
标注线
 70
     0
 62
     3
  6
CONTINUOUS
370
     9
390
5F09
  0
ENDTAB
  0
TABLE
  2
STYLE
  5
5EFD
330
0
100
AcDbSymbolTable
 70
     4
  0
STYLE
  5
5F57
330
5EFD
100
AcDbSymbolTableRecord
100
AcDbTextStyleTableRecord
  2
STANDARD
 70
     0
 40
0.0
 41
1.0
 50
0.0
 71
     0
 42
0.2
  3
arial.ttf
  4

1001
ACAD
1000
Arial
1071
       34
  0
STYLE
  5
7201
330
5EFD
100
AcDbSymbolTableRecord
100
AcDbTextStyleTableRecord
  2
Arial
 70
     0
 40
0.0
 41
1.0
 50
0.0
 71
     0
 42
0.2
  3
arial.ttf
  4

1001
ACAD
1000
Arial
1071
       34
  0
STYLE
  5
8979
330
5EFD
100
AcDbSymbolTableRecord
100
AcDbTextStyleTableRecord
  2

 70
     1
 40
0.0
 41
1.0
 50
0.0
 71
     0
 42
0.2
  3
ltypeshp.shx
  4

  0
STYLE
  5
8981
330
5EFD
100
AcDbSymbolTableRecord
100
AcDbTextStyleTableRecord
  2
尺寸专用
 70
     0
 40
0.0
 41
1.0
 50
0.0
 71
     0
 42
2.5
  3
romanc.shx
  4
gbcbig.shx
  0
ENDTAB
  0
TABLE
  2
VIEW
  5
5F00
330
0
100
AcDbSymbolTable
 70
     0
  0
ENDTAB
  0
TABLE
  2
UCS
  5
5F01
330
0
100
AcDbSymbolTable
 70
     0
  0
ENDTAB
  0
TABLE
  2
APPID
  5
5F03
330
0
100
AcDbSymbolTable
 70
    28
  0
APPID
  5
5F58
330
5F03
100
AcDbSymbolTableRecord
100
AcDbRegAppTableRecord
  2
ACAD
 70
     0
  0
APPID
  5
5F5F
330
5F03
100
AcDbSymbolTableRecord
100
AcDbRegAppTableRecord
  2
ACADANNOTATIVE
 70
     0
  0
APPID
  5
5F69
330
5F03
100
AcDbSymbolTableRecord
100
AcDbRegAppTableRecord
  2
ACAD_MLEADERVER
 70
     0
  0
APPID
  5
5F84
330
5F03
100
AcDbSymbolTableRecord
100
AcDbRegAppTableRecord
  2
ACAECLAYERSTANDARD
 70
     0
  0
APPID
  5
5F85
330
5F03
100
AcDbSymbolTableRecord
100
AcDbRegAppTableRecord
  2
ACAD_DSTYLE_DIMEXT_LENGTH
 70
     0
  0
APPID
  5
5F86
330
5F03
100
AcDbSymbolTableRecord
100
AcDbRegAppTableRecord
  2
ACAD_DSTYLE_DIMEXT_ENABLED
 70
     0
  0
APPID
  5
5F87
330
5F03
100
AcDbSymbolTableRecord
100
AcDbRegAppTableRecord
  2
ACAD_DSTYLE_DIMJOGGED_JOGA
 70
     0
  0
APPID
  5
5F88
330
5F03
100
AcDbSymbolTableRecord
100
AcDbRegAppTableRecord
  2
ACAD_DSTYLE_DIMARC_LENGTH_
 70
     0
  0
APPID
  5
5F89
330
5F03
100
AcDbSymbolTableRecord
100
AcDbRegAppTableRecord
  2
ACAD_PSEXT
 70
     0
  0
APPID
  5
5F8A
330
5F03
100
AcDbSymbolTableRecord
100
AcDbRegAppTableRecord
  2
MCAD_NO_VIS
 70
     0
  0
APPID
  5
5F8B
330
5F03
100
AcDbSymbolTableRecord
100
AcDbRegAppTableRecord
  2
ACAD_TEMP_GRAPHIC
 70
     0
  0
APPID
  5
5F8C
330
5F03
100
AcDbSymbolTableRecord
100
AcDbRegAppTableRecord
  2
AD_DRAW
 70
     0
  0
APPID
  5
5F8D
330
5F03
100
AcDbSymbolTableRecord
100
AcDbRegAppTableRecord
  2
ACATTRIBSERVICES
 70
     0
  0
APPID
  5
5F8E
330
5F03
100
AcDbSymbolTableRecord
100
AcDbRegAppTableRecord
  2
DESIGNERASSEMBLIES
 70
     0
  0
APPID
  5
5F8F
330
5F03
100
AcDbSymbolTableRecord
100
AcDbRegAppTableRecord
  2
ACADM_DIM_EDIT
 70
     0
  0
APPID
  5
5F90
330
5F03
100
AcDbSymbolTableRecord
100
AcDbRegAppTableRecord
  2
AMDT_DM_ADJ
 70
     0
  0
APPID
  5
5F91
330
5F03
100
AcDbSymbolTableRecord
100
AcDbRegAppTableRecord
  2
ACAD_DSTYLE_DIMJAG
 70
     0
  0
APPID
  5
5F92
330
5F03
100
AcDbSymbolTableRecord
100
AcDbRegAppTableRecord
  2
ACAD_DSTYLE_DIMBREAK
 70
     0
  0
APPID
  5
5F93
330
5F03
100
AcDbSymbolTableRecord
100
AcDbRegAppTableRecord
  2
ACAD_DSTYLE_DIMTALN
 70
     0
  0
APPID
  5
5F94
330
5F03
100
AcDbSymbolTableRecord
100
AcDbRegAppTableRecord
  2
GENIUS_GENODEF_13
 70
     0
  0
APPID
  5
5F95
330
5F03
100
AcDbSymbolTableRecord
100
AcDbRegAppTableRecord
  2
GENIUS_GENOBJ-N-FIL_13
 70
     0
  0
APPID
  5
5F96
330
5F03
100
AcDbSymbolTableRecord
100
AcDbRegAppTableRecord
  2
ACAD_EXEMPT_FROM_CAD_STANDARDS
 70
     0
  0
APPID
  5
5F97
330
5F03
100
AcDbSymbolTableRecord
100
AcDbRegAppTableRecord
  2
ACAD_DSTYLE_DIM_LINETYPE
 70
     0
  0
APPID
  5
5F98
330
5F03
100
AcDbSymbolTableRecord
100
AcDbRegAppTableRecord
  2
ACAD_DSTYLE_DIM_EXT1_LINETYPE
 70
     0
  0
APPID
  5
5F99
330
5F03
100
AcDbSymbolTableRecord
100
AcDbRegAppTableRecord
  2
ACAD_DSTYLE_DIM_EXT2_LINETYPE
 70
     0
  0
APPID
  5
5F9A
330
5F03
100
AcDbSymbolTableRecord
100
AcDbRegAppTableRecord
  2
ACAD_DSTYLE_DIMRADIAL_EXTENSION
 70
     0
  0
APPID
  5
6488
330
5F03
100
AcDbSymbolTableRecord
100
AcDbRegAppTableRecord
  2
AcadAnnoPO
 70
     0
  0
APPID
  5
7772
330
5F03
100
AcDbSymbolTableRecord
100
AcDbRegAppTableRecord
  2
ACAD_DSTYLE_DIMJOGGED_JOGANGLE_SYMBOL
 70
     0
  0
ENDTAB
  0
TABLE
  2
DIMSTYLE
  5
5F04
330
0
100
AcDbSymbolTable
 70
     5
100
AcDbDimStyleTable
 71
     2
340
5F9B
340
5F59
  0
DIMSTYLE
105
5F59
330
5F04
100
AcDbSymbolTableRecord
100
AcDbDimStyleTableRecord
  2
STANDARD
 70
     0
 41
0.65
 73
     0
 74
     0
140
0.65
176
     3
177
     3
178
     3
271
     3
272
     3
276
     2
277
     5
279
     2
284
     8
285
     8
286
     8
340
5F57
371
    13
372
    13
1001
ACAD_DSTYLE_DIMJAG
1070
   388
1040
1.5
1001
ACAD_DSTYLE_DIMTALN
1070
   392
1070
     0
1001
ACAD_DSTYLE_DIM_LINETYPE
1070
   380
1005
5F5E
1001
ACAD_DSTYLE_DIM_EXT1_LINETYPE
1070
   381
1005
5F5E
1001
ACAD_DSTYLE_DIM_EXT2_LINETYPE
1070
   382
1005
5F5E
  0
DIMSTYLE
105
5F9B
102
{ACAD_REACTORS
330
860C
330
8609
330
8555
330
8556
330
8557
330
8572
102
}
330
5F04
100
AcDbSymbolTableRecord
100
AcDbDimStyleTableRecord
  2
副本STANDARD
 70
     0
  3
"
  4
"
 41
0.65
 42
0.88
 43
0.015
 44
0.32
 73
     0
 74
     0
 78
     8
140
0.65
143
0.03937
147
0.3
171
     1
172
     1
176
   256
177
   256
178
   256
271
     3
272
     3
274
     1
276
     2
277
     5
279
     2
284
     8
285
     8
286
     8
340
5F57
1001
ACAD_DSTYLE_DIMJAG
1070
   388
1040
1.5
1001
ACAD_DSTYLE_DIMTALN
1070
   392
1070
     0
  0
DIMSTYLE
105
848C
102
{ACAD_REACTORS
330
85D2
330
8593
330
85FF
330
8560
102
}
330
5F04
100
AcDbSymbolTableRecord
100
AcDbDimStyleTableRecord
  2
副本Standard$0
 70
     0
  4
"
 41
16.0
 42
20.0
 44
7.0
 73
     0
 74
     0
 78
     8
 79
     2
140
20.0
143
0.03937
147
5.0
171
     3
172
     1
176
   256
177
   256
178
   256
179
     1
271
     1
272
     1
273
     7
274
     3
278
    44
340
5F57
1001
ACAD_DSTYLE_DIMBREAK
1070
   391
1040
0.125
1001
ACAD_DSTYLE_DIMJAG
1070
   388
1040
1.5
  0
DIMSTYLE
105
8982
330
5F04
100
AcDbSymbolTableRecord
100
AcDbDimStyleTableRecord
  2
8尺寸(350-450)
 70
     0
 41
15.0
 42
3.5
 43
3.5
 44
3.5
 73
     0
 74
     0
 77
     1
 78
     9
140
13.0
141
5.0
143
0.03937007874
147
5.5
171
     5
172
     1
176
   110
177
     4
178
    42
271
     2
272
     2
273
     7
274
     5
283
     0
284
     8
285
     8
340
8981
371
    18
372
    18
  0
ENDTAB
  0
TABLE
  2
BLOCK_RECORD
  5
5EFB
330
0
100
AcDbSymbolTable
 70
    12
  0
BLOCK_RECORD
  5
5F6E
102
{ACAD_XDICTIONARY
360
654F
102
}
330
5EFB
100
AcDbSymbolTableRecord
100
AcDbBlockTableRecord
  2
*Model_Space
340
5F71
  0
BLOCK_RECORD
  5
5F6A
330
5EFB
100
AcDbSymbolTableRecord
100
AcDbBlockTableRecord
  2
*Paper_Space
340
5F6D
  0
BLOCK_RECORD
  5
860F
330
5EFB
100
AcDbSymbolTableRecord
100
AcDbBlockTableRecord
  2
*D0
340
0
  0
BLOCK_RECORD
  5
861D
330
5EFB
100
AcDbSymbolTableRecord
100
AcDbBlockTableRecord
  2
*D1
340
0
  0
BLOCK_RECORD
  5
862A
330
5EFB
100
AcDbSymbolTableRecord
100
AcDbBlockTableRecord
  2
*D2
340
0
  0
BLOCK_RECORD
  5
8637
330
5EFB
100
AcDbSymbolTableRecord
100
AcDbBlockTableRecord
  2
*D3
340
0
  0
BLOCK_RECORD
  5
8644
330
5EFB
100
AcDbSymbolTableRecord
100
AcDbBlockTableRecord
  2
*D4
340
0
  0
BLOCK_RECORD
  5
8651
330
5EFB
100
AcDbSymbolTableRecord
100
AcDbBlockTableRecord
  2
*D5
340
0
  0
BLOCK_RECORD
  5
865F
330
5EFB
100
AcDbSymbolTableRecord
100
AcDbBlockTableRecord
  2
*D6
340
0
  0
BLOCK_RECORD
  5
8677
330
5EFB
100
AcDbSymbolTableRecord
100
AcDbBlockTableRecord
  2
*D7
340
0
  0
BLOCK_RECORD
  5
8685
330
5EFB
100
AcDbSymbolTableRecord
100
AcDbBlockTableRecord
  2
*D8
340
0
  0
BLOCK_RECORD
  5
86BA
330
5EFB
100
AcDbSymbolTableRecord
100
AcDbBlockTableRecord
  2
*D9
340
0
  0
ENDTAB
  0
ENDSEC
  0
SECTION
  2
BLOCKS
  0
BLOCK
  5
5F6F
330
5F6E
100
AcDbEntity
  8
0
100
AcDbBlockBegin
  2
*Model_Space
 70
     0
 10
0.0
 20
0.0
 30
0.0
  3
*Model_Space
  1

  0
ENDBLK
  5
5F70
330
5F6E
100
AcDbEntity
  8
0
100
AcDbBlockEnd
  0
BLOCK
  5
5F6B
330
5F6A
100
AcDbEntity
 67
     1
  8
0
100
AcDbBlockBegin
  2
*Paper_Space
 70
     0
 10
0.0
 20
0.0
 30
0.0
  3
*Paper_Space
  1

  0
ENDBLK
  5
5F6C
330
5F6A
100
AcDbEntity
 67
     1
  8
0
100
AcDbBlockEnd
  0
BLOCK
  5
8610
330
860F
100
AcDbEntity
  8
0
100
AcDbBlockBegin
  2
*D0
 70
     1
 10
0.0
 20
0.0
 30
0.0
  3
*D0
  1

  0
LINE
  5
8943
330
860F
100
AcDbEntity
  8
标注
  6
Continuous
370
    -2
100
AcDbLine
 10
1633.976295431705
 20
191.8880180847387
 30
0.0
 11
1637.907304036629
 21
191.8880180847387
 31
0.0
  0
LINE
  5
8944
330
860F
100
AcDbEntity
  8
标注
  6
Continuous
370
    -2
100
AcDbLine
 10
1631.955910486092
 20
181.8880581925348
 30
0.0
 11
1637.907304036629
 21
181.8880581925348
 31
0.0
  0
LINE
  5
8945
330
860F
100
AcDbEntity
  8
标注
  6
Continuous
370
    -2
100
AcDbLine
 10
1637.587304036629
 20
191.2380180847387
 30
0.0
 11
1637.587304036629
 21
187.78350198584
 31
0.0
  0
LINE
  5
8946
330
860F
100
AcDbEntity
  8
标注
  6
Continuous
370
    -2
100
AcDbLine
 10
1637.587304036629
 20
182.5380581925348
 30
0.0
 11
1637.587304036629
 21
185.9925742914334
 31
0.0
  0
MTEXT
  5
8947
330
860F
100
AcDbEntity
  8
标注
100
AcDbMText
 10
1637.587304036629
 20
186.8880381386369
 30
0.0
 40
0.65
 41
0.0
 71
     5
 72
     1
  1
\A1;10"
 11
0.0000000000000001
 21
1.0
 31
0.0
 73
     1
 44
1.0
  0
SOLID
  5
8948
330
860F
100
AcDbEntity
  8
标注
100
AcDbTrace
 10
1637.478970703295
 20
191.2380180847387
 30
0.0
 11
1637.695637369962
 21
191.2380180847387
 31
0.0
 12
1637.587304036629
 22
191.8880180847387
 32
0.0
 13
1637.587304036629
 23
191.8880180847387
 33
0.0
  0
SOLID
  5
8949
330
860F
100
AcDbEntity
  8
标注
100
AcDbTrace
 10
1637.478970703295
 20
182.5380581925348
 30
0.0
 11
1637.695637369962
 21
182.5380581925348
 31
0.0
 12
1637.587304036629
 22
181.8880581925348
 32
0.0
 13
1637.587304036629
 23
181.8880581925348
 33
0.0
  0
POINT
  5
894A
330
860F
100
AcDbEntity
  8
DEFPOINTS
 62
     0
100
AcDbPoint
 10
1633.096295431705
 20
191.8880180847387
 30
0.0
  0
POINT
  5
894B
330
860F
100
AcDbEntity
  8
DEFPOINTS
 62
     0
100
AcDbPoint
 10
1631.075910486092
 20
181.8880581925348
 30
0.0
  0
POINT
  5
894C
330
860F
100
AcDbEntity
  8
DEFPOINTS
 62
     0
100
AcDbPoint
 10
1637.587304036629
 20
181.8880581925348
 30
0.0
  0
ENDBLK
  5
8611
330
860F
100
AcDbEntity
  8
0
100
AcDbBlockEnd
  0
BLOCK
  5
861E
330
861D
100
AcDbEntity
  8
0
100
AcDbBlockBegin
  2
*D1
 70
     1
 10
0.0
 20
0.0
 30
0.0
  3
*D1
  1

  0
LINE
  5
8907
330
861D
100
AcDbEntity
  8
标注
 48
5.0
370
    -2
100
AcDbLine
 10
1632.637718108869
 20
169.1686332470155
 30
0.0
 11
1636.019858433046
 21
169.1686332470155
 31
0.0
  0
LINE
  5
8908
330
861D
100
AcDbEntity
  8
标注
 48
5.0
370
    -2
100
AcDbLine
 10
1632.637718108869
 20
153.1686972469332
 30
0.0
 11
1636.019858433046
 21
153.1686972469332
 31
0.0
  0
LINE
  5
8909
330
861D
100
AcDbEntity
  8
标注
 48
5.0
370
    -2
100
AcDbLine
 10
1635.699858433046
 20
168.5186332470155
 30
0.0
 11
1635.699858433046
 21
162.0641290941919
 31
0.0
  0
LINE
  5
890A
330
861D
100
AcDbEntity
  8
标注
 48
5.0
370
    -2
100
AcDbLine
 10
1635.699858433046
 20
153.8186972469332
 30
0.0
 11
1635.699858433046
 21
160.2732013997853
 31
0.0
  0
MTEXT
  5
890B
330
861D
100
AcDbEntity
  8
标注
 48
5.0
100
AcDbMText
 10
1635.699858433074
 20
161.1686652469889
 30
0.0
 40
0.65
 41
0.0
 71
     5
 72
     1
  1
\A1;16"
 11
0.0000000000000001
 21
1.0
 31
0.0
 73
     1
 44
1.0
  0
SOLID
  5
890C
330
861D
100
AcDbEntity
  8
标注
 48
5.0
100
AcDbTrace
 10
1635.591525099712
 20
168.5186332470155
 30
0.0
 11
1635.808191766379
 21
168.5186332470155
 31
0.0
 12
1635.699858433046
 22
169.1686332470155
 32
0.0
 13
1635.699858433046
 23
169.1686332470155
 33
0.0
  0
SOLID
  5
890D
330
861D
100
AcDbEntity
  8
标注
 48
5.0
100
AcDbTrace
 10
1635.591525099712
 20
153.8186972469332
 30
0.0
 11
1635.808191766379
 21
153.8186972469332
 31
0.0
 12
1635.699858433046
 22
153.1686972469332
 32
0.0
 13
1635.699858433046
 23
153.1686972469332
 33
0.0
  0
POINT
  5
890E
330
861D
100
AcDbEntity
  8
DEFPOINTS
 62
     0
 48
5.0
100
AcDbPoint
 10
1631.757718108869
 20
169.1686332470155
 30
0.0
  0
POINT
  5
890F
330
861D
100
AcDbEntity
  8
DEFPOINTS
 62
     0
 48
5.0
100
AcDbPoint
 10
1631.757718108869
 20
153.1686972469332
 30
0.0
  0
POINT
  5
8910
330
861D
100
AcDbEntity
  8
DEFPOINTS
 62
     0
 48
5.0
100
AcDbPoint
 10
1635.699858433046
 20
153.1686972469332
 30
0.0
  0
ENDBLK
  5
861F
330
861D
100
AcDbEntity
  8
0
100
AcDbBlockEnd
  0
BLOCK
  5
862B
330
862A
100
AcDbEntity
  8
0
100
AcDbBlockBegin
  2
*D2
 70
     1
 10
0.0
 20
0.0
 30
0.0
  3
*D2
  1

  0
LINE
  5
8911
330
862A
100
AcDbEntity
  8
标注
 48
5.0
370
    -2
100
AcDbLine
 10
1616.257681684
 20
152.2886972469332
 30
0.0
 11
1616.257681684
 21
147.8974342610561
 31
0.0
  0
LINE
  5
8912
330
862A
100
AcDbEntity
  8
标注
 48
5.0
370
    -2
100
AcDbLine
 10
1601.757641259135
 20
152.2886972469332
 30
0.0
 11
1601.757641259135
 21
147.8974342610561
 31
0.0
  0
LINE
  5
8913
330
862A
100
AcDbEntity
  8
标注
 48
5.0
370
    -2
100
AcDbLine
 10
1615.607681684
 20
148.217434261056
 30
0.0
 11
1611.660420090943
 21
148.217434261056
 31
0.0
  0
LINE
  5
8914
330
862A
100
AcDbEntity
  8
标注
 48
5.0
370
    -2
100
AcDbLine
 10
1602.407641259135
 20
148.217434261056
 30
0.0
 11
1608.354894852198
 21
148.217434261056
 31
0.0
  0
MTEXT
  5
8915
330
862A
100
AcDbEntity
  8
标注
 48
5.0
100
AcDbMText
 10
1610.007657471571
 20
148.217434261056
 30
0.0
 40
0.65
 41
0.0
 71
     5
 72
     1
  1
\A1;14 1/2"
 73
     1
 44
1.0
  0
SOLID
  5
8916
330
862A
100
AcDbEntity
  8
标注
 48
5.0
100
AcDbTrace
 10
1615.607681684
 20
148.3257675943894
 30
0.0
 11
1615.607681684
 21
148.1091009277227
 31
0.0
 12
1616.257681684
 22
148.217434261056
 32
0.0
 13
1616.257681684
 23
148.217434261056
 33
0.0
  0
SOLID
  5
8917
330
862A
100
AcDbEntity
  8
标注
 48
5.0
100
AcDbTrace
 10
1602.407641259135
 20
148.3257675943894
 30
0.0
 11
1602.407641259135
 21
148.1091009277227
 31
0.0
 12
1601.757641259135
 22
148.217434261056
 32
0.0
 13
1601.757641259135
 23
148.217434261056
 33
0.0
  0
POINT
  5
8918
330
862A
100
AcDbEntity
  8
DEFPOINTS
 62
     0
 48
5.0
100
AcDbPoint
 10
1616.257681684
 20
153.1686972469332
 30
0.0
  0
POINT
  5
8919
330
862A
100
AcDbEntity
  8
DEFPOINTS
 62
     0
 48
5.0
100
AcDbPoint
 10
1601.757641259135
 20
153.1686972469332
 30
0.0
  0
POINT
  5
891A
330
862A
100
AcDbEntity
  8
DEFPOINTS
 62
     0
 48
5.0
100
AcDbPoint
 10
1601.757641259135
 20
148.217434261056
 30
0.0
  0
ENDBLK
  5
862C
330
862A
100
AcDbEntity
  8
0
100
AcDbBlockEnd
  0
BLOCK
  5
8638
330
8637
100
AcDbEntity
  8
0
100
AcDbBlockBegin
  2
*D3
 70
     1
 10
0.0
 20
0.0
 30
0.0
  3
*D3
  1

  0
LINE
  5
891B
330
8637
100
AcDbEntity
  8
标注
 48
5.0
370
    -2
100
AcDbLine
 10
1633.194720234859
 20
149.7887072469322
 30
0.0
 11
1633.194720234859
 21
146.1409213673575
 31
0.0
  0
LINE
  5
891C
330
8637
100
AcDbEntity
  8
标注
 48
5.0
370
    -2
100
AcDbLine
 10
1600.320639133158
 20
149.7887072469322
 30
0.0
 11
1600.320639133158
 21
146.1409213673575
 31
0.0
  0
LINE
  5
891D
330
8637
100
AcDbEntity
  8
标注
 48
5.0
370
    -2
100
AcDbLine
 10
1632.544720234859
 20
146.4609213673575
 30
0.0
 11
1618.440814063272
 21
146.4609213673575
 31
0.0
  0
LINE
  5
891E
330
8637
100
AcDbEntity
  8
标注
 48
5.0
370
    -2
100
AcDbLine
 10
1600.970639133159
 20
146.4609213673575
 30
0.0
 11
1615.074545304746
 21
146.4609213673575
 31
0.0
  0
MTEXT
  5
891F
330
8637
100
AcDbEntity
  8
标注
 48
5.0
100
AcDbMText
 10
1616.757679684009
 20
146.4609213673575
 30
0.0
 40
0.65
 41
0.0
 71
     5
 72
     1
  1
\A1;32 7/8"
 73
     1
 44
1.0
  0
SOLID
  5
8920
330
8637
100
AcDbEntity
  8
标注
 48
5.0
100
AcDbTrace
 10
1632.544720234859
 20
146.5692547006908
 30
0.0
 11
1632.544720234859
 21
146.3525880340242
 31
0.0
 12
1633.194720234859
 22
146.4609213673575
 32
0.0
 13
1633.194720234859
 23
146.4609213673575
 33
0.0
  0
SOLID
  5
8921
330
8637
100
AcDbEntity
  8
标注
 48
5.0
100
AcDbTrace
 10
1600.970639133159
 20
146.5692547006908
 30
0.0
 11
1600.970639133159
 21
146.3525880340242
 31
0.0
 12
1600.320639133158
 22
146.4609213673575
 32
0.0
 13
1600.320639133158
 23
146.4609213673575
 33
0.0
  0
POINT
  5
8922
330
8637
100
AcDbEntity
  8
DEFPOINTS
 62
     0
 48
5.0
100
AcDbPoint
 10
1633.194720234859
 20
150.6687072469322
 30
0.0
  0
POINT
  5
8923
330
8637
100
AcDbEntity
  8
DEFPOINTS
 62
     0
 48
5.0
100
AcDbPoint
 10
1600.320639133158
 20
150.6687072469322
 30
0.0
  0
POINT
  5
8924
330
8637
100
AcDbEntity
  8
DEFPOINTS
 62
     0
 48
5.0
100
AcDbPoint
 10
1600.320639133158
 20
146.4609213673575
 30
0.0
  0
ENDBLK
  5
8639
330
8637
100
AcDbEntity
  8
0
100
AcDbBlockEnd
  0
BLOCK
  5
8645
330
8644
100
AcDbEntity
  8
0
100
AcDbBlockBegin
  2
*D4
 70
     1
 10
0.0
 20
0.0
 30
0.0
  3
*D4
  1

  0
LINE
  5
8925
330
8644
100
AcDbEntity
  8
标注
  6
Continuous
370
    -2
100
AcDbLine
 10
1634.074720234859
 20
170.6686272469987
 30
0.0
 11
1639.764333155195
 21
170.6686272469987
 31
0.0
  0
LINE
  5
8926
330
8644
100
AcDbEntity
  8
标注
  6
Continuous
370
    -2
100
AcDbLine
 10
1617.637679684009
 20
149.9187102469406
 30
0.0
 11
1639.764333155195
 21
149.9187102469406
 31
0.0
  0
LINE
  5
8927
330
8644
100
AcDbEntity
  8
标注
  6
Continuous
370
    -2
100
AcDbLine
 10
1639.444333155195
 20
170.0186272469987
 30
0.0
 11
1639.444333155195
 21
161.9825671098908
 31
0.0
  0
LINE
  5
8928
330
8644
100
AcDbEntity
  8
标注
  6
Continuous
370
    -2
100
AcDbLine
 10
1639.444333155195
 20
150.5687102469406
 30
0.0
 11
1639.444333155195
 21
158.6047703841063
 31
0.0
  0
MTEXT
  5
8929
330
8644
100
AcDbEntity
  8
标注
100
AcDbMText
 10
1639.444333155224
 20
160.2936687469988
 30
0.0
 40
0.65
 41
0.0
 71
     5
 72
     1
  1
\A1;20 3/4"
 11
0.0000000000000001
 21
1.0
 31
0.0
 73
     1
 44
1.0
  0
SOLID
  5
892A
330
8644
100
AcDbEntity
  8
标注
100
AcDbTrace
 10
1639.335999821862
 20
170.0186272469987
 30
0.0
 11
1639.552666488529
 21
170.0186272469987
 31
0.0
 12
1639.444333155195
 22
170.6686272469987
 32
0.0
 13
1639.444333155195
 23
170.6686272469987
 33
0.0
  0
SOLID
  5
892B
330
8644
100
AcDbEntity
  8
标注
100
AcDbTrace
 10
1639.335999821862
 20
150.5687102469406
 30
0.0
 11
1639.552666488529
 21
150.5687102469406
 31
0.0
 12
1639.444333155195
 22
149.9187102469406
 32
0.0
 13
1639.444333155195
 23
149.9187102469406
 33
0.0
  0
POINT
  5
892C
330
8644
100
AcDbEntity
  8
DEFPOINTS
 62
     0
100
AcDbPoint
 10
1633.194720234859
 20
170.6686272469987
 30
0.0
  0
POINT
  5
892D
330
8644
100
AcDbEntity
  8
DEFPOINTS
 62
     0
100
AcDbPoint
 10
1616.757679684009
 20
149.9187102469406
 30
0.0
  0
POINT
  5
892E
330
8644
100
AcDbEntity
  8
DEFPOINTS
 62
     0
100
AcDbPoint
 10
1639.444333155195
 20
149.9187102469406
 30
0.0
  0
ENDBLK
  5
8646
330
8644
100
AcDbEntity
  8
0
100
AcDbBlockEnd
  0
BLOCK
  5
8652
330
8651
100
AcDbEntity
  8
0
100
AcDbBlockBegin
  2
*D5
 70
     1
 10
0.0
 20
0.0
 30
0.0
  3
*D5
  1

  0
LINE
  5
8939
330
8651
100
AcDbEntity
  8
标注
  6
Continuous
370
    -2
100
AcDbLine
 10
1633.976295431705
 20
191.8880180847387
 30
0.0
 11
1635.974119851001
 21
191.8880180847387
 31
0.0
  0
LINE
  5
893A
330
8651
100
AcDbEntity
  8
标注
  6
Continuous
370
    -2
100
AcDbLine
 10
1633.976295431705
 20
182.8880540846941
 30
0.0
 11
1635.974119851001
 21
182.8880540846941
 31
0.0
  0
LINE
  5
893B
330
8651
100
AcDbEntity
  8
标注
  6
Continuous
370
    -2
100
AcDbLine
 10
1635.654119851001
 20
191.2380180847387
 30
0.0
 11
1635.654119851001
 21
188.0615865622061
 31
0.0
  0
LINE
  5
893C
330
8651
100
AcDbEntity
  8
标注
  6
Continuous
370
    -2
100
AcDbLine
 10
1635.654119851001
 20
183.5380540846941
 30
0.0
 11
1635.654119851001
 21
186.7144856072266
 31
0.0
  0
SOLID
  5
893D
330
8651
100
AcDbEntity
  8
标注
100
AcDbTrace
 10
1635.545786517668
 20
191.2380180847387
 30
0.0
 11
1635.762453184334
 21
191.2380180847387
 31
0.0
 12
1635.654119851001
 22
191.8880180847387
 32
0.0
 13
1635.654119851001
 23
191.8880180847387
 33
0.0
  0
SOLID
  5
893E
330
8651
100
AcDbEntity
  8
标注
100
AcDbTrace
 10
1635.545786517668
 20
183.5380540846941
 30
0.0
 11
1635.762453184334
 21
183.5380540846941
 31
0.0
 12
1635.654119851001
 22
182.8880540846941
 32
0.0
 13
1635.654119851001
 23
182.8880540846941
 33
0.0
  0
MTEXT
  5
893F
330
8651
100
AcDbEntity
  8
标注
100
AcDbMText
 10
1635.654119851001
 20
187.3880360847166
 30
0.0
 40
0.65
 41
0.0
 71
     5
 72
     1
  1
\A1;9"
 11
0.0000000000000001
 21
1.0
 31
0.0
 73
     1
 44
1.0
  0
POINT
  5
8940
330
8651
100
AcDbEntity
  8
DEFPOINTS
 62
     0
100
AcDbPoint
 10
1633.096295431705
 20
191.8880180847387
 30
0.0
  0
POINT
  5
8941
330
8651
100
AcDbEntity
  8
DEFPOINTS
 62
     0
100
AcDbPoint
 10
1633.096295431705
 20
182.8880540846941
 30
0.0
  0
POINT
  5
8942
330
8651
100
AcDbEntity
  8
DEFPOINTS
 62
     0
100
AcDbPoint
 10
1635.654119851001
 20
182.8880540846941
 30
0.0
  0
ENDBLK
  5
8653
330
8651
100
AcDbEntity
  8
0
100
AcDbBlockEnd
  0
BLOCK
  5
8660
330
865F
100
AcDbEntity
  8
0
100
AcDbBlockBegin
  2
*D6
 70
     1
 10
0.0
 20
0.0
 30
0.0
  3
*D6
  1

  0
LINE
  5
8961
330
865F
100
AcDbEntity
  8
标注线
 48
5.0
370
    -2
100
AcDbLine
 10
1632.756880178306
 20
131.5295881921267
 30
0.0
 11
1635.466047423011
 21
131.5295881921267
 31
0.0
  0
LINE
  5
8962
330
865F
100
AcDbEntity
  8
标注线
 48
5.0
370
    -2
100
AcDbLine
 10
1632.756880178306
 20
112.8296631111266
 30
0.0
 11
1635.466047423011
 21
112.8296631111266
 31
0.0
  0
LINE
  5
8963
330
865F
100
AcDbEntity
  8
标注线
 48
5.0
370
    -2
100
AcDbLine
 10
1635.146047423011
 20
130.8795881921267
 30
0.0
 11
1635.146047423011
 21
123.8323882709991
 31
0.0
  0
LINE
  5
8964
330
865F
100
AcDbEntity
  8
标注线
 48
5.0
370
    -2
100
AcDbLine
 10
1635.146047423011
 20
113.4796631111266
 30
0.0
 11
1635.146047423011
 21
120.5268630322542
 31
0.0
  0
SOLID
  5
8965
330
865F
100
AcDbEntity
  8
标注线
 48
5.0
100
AcDbTrace
 10
1635.037714089678
 20
130.8795881921267
 30
0.0
 11
1635.254380756344
 21
130.8795881921267
 31
0.0
 12
1635.146047423011
 22
131.5295881921267
 32
0.0
 13
1635.146047423011
 23
131.5295881921267
 33
0.0
  0
SOLID
  5
8966
330
865F
100
AcDbEntity
  8
标注线
 48
5.0
100
AcDbTrace
 10
1635.037714089678
 20
113.4796631111266
 30
0.0
 11
1635.254380756344
 21
113.4796631111266
 31
0.0
 12
1635.146047423011
 22
112.8296631111266
 32
0.0
 13
1635.146047423011
 23
112.8296631111266
 33
0.0
  0
MTEXT
  5
8967
330
865F
100
AcDbEntity
  8
标注线
 48
5.0
100
AcDbMText
 10
1635.146047423011
 20
122.1796256516269
 30
0.0
 40
0.65
 41
0.0
 71
     5
 72
     1
  1
\A1;18 3/4"
 11
0.0000000000000001
 21
1.0
 31
0.0
 73
     1
 44
1.0
  0
POINT
  5
8968
330
865F
100
AcDbEntity
  8
DEFPOINTS
 62
     0
 48
5.0
100
AcDbPoint
 10
1631.876880178306
 20
131.5295881921267
 30
0.0
  0
POINT
  5
8969
330
865F
100
AcDbEntity
  8
DEFPOINTS
 62
     0
 48
5.0
100
AcDbPoint
 10
1631.876880178306
 20
112.8296631111266
 30
0.0
  0
POINT
  5
896A
330
865F
100
AcDbEntity
  8
DEFPOINTS
 62
     0
 48
5.0
100
AcDbPoint
 10
1635.146047423011
 20
112.8296631111266
 30
0.0
  0
ENDBLK
  5
8661
330
865F
100
AcDbEntity
  8
0
100
AcDbBlockEnd
  0
BLOCK
  5
8678
330
8677
100
AcDbEntity
  8
0
100
AcDbBlockBegin
  2
*D7
 70
     1
 10
0.0
 20
0.0
 30
0.0
  3
*D7
  1

  0
LINE
  5
894D
330
8677
100
AcDbEntity
  8
标注
  6
Continuous
370
    -2
100
AcDbLine
 10
1599.539063936298
 20
191.8880180847387
 30
0.0
 11
1597.832975001178
 21
191.8880180847387
 31
0.0
  0
LINE
  5
894E
330
8677
100
AcDbEntity
  8
标注
  6
Continuous
370
    -2
100
AcDbLine
 10
1599.561569798973
 20
181.8878272984854
 30
0.0
 11
1597.832975001178
 21
181.8878272984854
 31
0.0
  0
LINE
  5
894F
330
8677
100
AcDbEntity
  8
标注
  6
Continuous
370
    -2
100
AcDbLine
 10
1598.152975001178
 20
191.2380180847387
 30
0.0
 11
1598.152975001178
 21
187.7833865388153
 31
0.0
  0
LINE
  5
8950
330
8677
100
AcDbEntity
  8
标注
  6
Continuous
370
    -2
100
AcDbLine
 10
1598.152975001178
 20
182.5378272984854
 30
0.0
 11
1598.152975001178
 21
185.9924588444087
 31
0.0
  0
SOLID
  5
8951
330
8677
100
AcDbEntity
  8
标注
100
AcDbTrace
 10
1598.044641667844
 20
191.2380180847387
 30
0.0
 11
1598.261308334511
 21
191.2380180847387
 31
0.0
 12
1598.152975001178
 22
191.8880180847387
 32
0.0
 13
1598.152975001178
 23
191.8880180847387
 33
0.0
  0
SOLID
  5
8952
330
8677
100
AcDbEntity
  8
标注
100
AcDbTrace
 10
1598.044641667844
 20
182.5378272984854
 30
0.0
 11
1598.261308334511
 21
182.5378272984854
 31
0.0
 12
1598.152975001178
 22
181.8878272984854
 32
0.0
 13
1598.152975001178
 23
181.8878272984854
 33
0.0
  0
MTEXT
  5
8953
330
8677
100
AcDbEntity
  8
标注
100
AcDbMText
 10
1598.152975001178
 20
186.8879226916123
 30
0.0
 40
0.65
 41
0.0
 71
     5
 72
     1
  1
\A1;10"
 11
0.0000000000000001
 21
1.0
 31
0.0
 73
     1
 44
1.0
  0
POINT
  5
8954
330
8677
100
AcDbEntity
  8
DEFPOINTS
 62
     0
100
AcDbPoint
 10
1600.419063936298
 20
191.8880180847387
 30
0.0
  0
POINT
  5
8955
330
8677
100
AcDbEntity
  8
DEFPOINTS
 62
     0
100
AcDbPoint
 10
1600.441569798973
 20
181.8878272984853
 30
0.0
  0
POINT
  5
8956
330
8677
100
AcDbEntity
  8
DEFPOINTS
 62
     0
100
AcDbPoint
 10
1598.152975001178
 20
181.8878272984854
 30
0.0
  0
ENDBLK
  5
8679
330
8677
100
AcDbEntity
  8
0
100
AcDbBlockEnd
  0
BLOCK
  5
8686
330
8685
100
AcDbEntity
  8
0
100
AcDbBlockBegin
  2
*D8
 70
     1
 10
0.0
 20
0.0
 30
0.0
  3
*D8
  1

  0
LINE
  5
8957
330
8685
100
AcDbEntity
  8
标注线
 48
5.0
370
    -2
100
AcDbLine
 10
1601.719323643536
 20
111.9496631111266
 30
0.0
 11
1601.719323643536
 21
109.3625630487948
 31
0.0
  0
LINE
  5
8958
330
8685
100
AcDbEntity
  8
标注线
 48
5.0
370
    -2
100
AcDbLine
 10
1631.876880178306
 20
111.9496631111266
 30
0.0
 11
1631.876880178306
 21
109.3625630487948
 31
0.0
  0
LINE
  5
8959
330
8685
100
AcDbEntity
  8
标注线
 48
5.0
370
    -2
100
AcDbLine
 10
1602.369323643537
 20
109.6825630487948
 30
0.0
 11
1615.114967531658
 21
109.6825630487948
 31
0.0
  0
LINE
  5
895A
330
8685
100
AcDbEntity
  8
标注线
 48
5.0
370
    -2
100
AcDbLine
 10
1631.226880178305
 20
109.6825630487948
 30
0.0
 11
1618.481236290184
 21
109.6825630487948
 31
0.0
  0
SOLID
  5
895B
330
8685
100
AcDbEntity
  8
标注线
 48
5.0
100
AcDbTrace
 10
1602.369323643537
 20
109.7908963821281
 30
0.0
 11
1602.369323643537
 21
109.5742297154615
 31
0.0
 12
1601.719323643536
 22
109.6825630487948
 32
0.0
 13
1601.719323643536
 23
109.6825630487948
 33
0.0
  0
SOLID
  5
895C
330
8685
100
AcDbEntity
  8
标注线
 48
5.0
100
AcDbTrace
 10
1631.226880178305
 20
109.7908963821281
 30
0.0
 11
1631.226880178305
 21
109.5742297154615
 31
0.0
 12
1631.876880178306
 22
109.6825630487948
 32
0.0
 13
1631.876880178306
 23
109.6825630487948
 33
0.0
  0
MTEXT
  5
895D
330
8685
100
AcDbEntity
  8
标注线
 48
5.0
100
AcDbMText
 10
1616.798101910921
 20
109.6825630487948
 30
0.0
 40
0.65
 41
0.0
 71
     5
 72
     1
  1
\A1;30 1/8"
 73
     1
 44
1.0
  0
POINT
  5
895E
330
8685
100
AcDbEntity
  8
DEFPOINTS
 62
     0
 48
5.0
100
AcDbPoint
 10
1601.719323643536
 20
112.8296631111266
 30
0.0
  0
POINT
  5
895F
330
8685
100
AcDbEntity
  8
DEFPOINTS
 62
     0
 48
5.0
100
AcDbPoint
 10
1631.876880178306
 20
112.8296631111266
 30
0.0
  0
POINT
  5
8960
330
8685
100
AcDbEntity
  8
DEFPOINTS
 62
     0
 48
5.0
100
AcDbPoint
 10
1631.876880178306
 20
109.6825630487948
 30
0.0
  0
ENDBLK
  5
8687
330
8685
100
AcDbEntity
  8
0
100
AcDbBlockEnd
  0
BLOCK
  5
86BB
330
86BA
100
AcDbEntity
  8
0
100
AcDbBlockBegin
  2
*D9
 70
     1
 10
0.0
 20
0.0
 30
0.0
  3
*D9
  1

  0
LINE
  5
892F
330
86BA
100
AcDbEntity
  8
标注线
 48
5.0
370
    -2
100
AcDbLine
 10
1617.257677684003
 20
152.2886972469332
 30
0.0
 11
1617.257677684003
 21
147.8974342610561
 31
0.0
  0
LINE
  5
8930
330
86BA
100
AcDbEntity
  8
标注线
 48
5.0
370
    -2
100
AcDbLine
 10
1631.757718108869
 20
152.2886972469332
 30
0.0
 11
1631.757718108869
 21
147.8974342610561
 31
0.0
  0
LINE
  5
8931
330
86BA
100
AcDbEntity
  8
标注线
 48
5.0
370
    -2
100
AcDbLine
 10
1617.907677684003
 20
148.217434261056
 30
0.0
 11
1622.854935277064
 21
148.217434261056
 31
0.0
  0
LINE
  5
8932
330
86BA
100
AcDbEntity
  8
标注线
 48
5.0
370
    -2
100
AcDbLine
 10
1631.107718108869
 20
148.217434261056
 30
0.0
 11
1626.160460515809
 21
148.217434261056
 31
0.0
  0
SOLID
  5
8933
330
86BA
100
AcDbEntity
  8
标注线
 48
5.0
100
AcDbTrace
 10
1617.907677684003
 20
148.3257675943894
 30
0.0
 11
1617.907677684003
 21
148.1091009277227
 31
0.0
 12
1617.257677684003
 22
148.217434261056
 32
0.0
 13
1617.257677684003
 23
148.217434261056
 33
0.0
  0
SOLID
  5
8934
330
86BA
100
AcDbEntity
  8
标注线
 48
5.0
100
AcDbTrace
 10
1631.107718108869
 20
148.3257675943894
 30
0.0
 11
1631.107718108869
 21
148.1091009277227
 31
0.0
 12
1631.757718108869
 22
148.217434261056
 32
0.0
 13
1631.757718108869
 23
148.217434261056
 33
0.0
  0
MTEXT
  5
8935
330
86BA
100
AcDbEntity
  8
标注线
 48
5.0
100
AcDbMText
 10
1624.507697896436
 20
148.217434261056
 30
0.0
 40
0.65
 41
0.0
 71
     5
 72
     1
  1
\A1;14 1/2"
 73
     1
 44
1.0
  0
POINT
  5
8936
330
86BA
100
AcDbEntity
  8
DEFPOINTS
 62
     0
 48
5.0
100
AcDbPoint
 10
1617.257677684003
 20
153.1686972469332
 30
0.0
  0
POINT
  5
8937
330
86BA
100
AcDbEntity
  8
DEFPOINTS
 62
     0
 48
5.0
100
AcDbPoint
 10
1631.757718108869
 20
153.1686972469332
 30
0.0
  0
POINT
  5
8938
330
86BA
100
AcDbEntity
  8
DEFPOINTS
 62
     0
 48
5.0
100
AcDbPoint
 10
1631.757718108869
 20
148.217434261056
 30
0.0
  0
ENDBLK
  5
86BC
330
86BA
100
AcDbEntity
  8
0
100
AcDbBlockEnd
  0
ENDSEC
  0
SECTION
  2
ENTITIES
  0
LINE
  5
8551
330
5F6E
100
AcDbEntity
  8
0
100
AcDbLine
 10
1631.757718108869
 20
153.1686972469332
 30
0.0
 11
1631.757718108869
 21
169.1686332470155
 31
0.0
  0
LINE
  5
8552
330
5F6E
100
AcDbEntity
  8
0
100
AcDbLine
 10
1601.757641259135
 20
169.1686332470155
 30
0.0
 11
1601.757641259135
 21
153.1686972469332
 31
0.0
  0
LINE
  5
8553
330
5F6E
100
AcDbEntity
  8
0
100
AcDbLine
 10
1601.757641259135
 20
153.1686972469332
 30
0.0
 11
1616.257681684
 21
153.1686972469332
 31
0.0
  0
LINE
  5
8554
330
5F6E
100
AcDbEntity
  8
0
100
AcDbLine
 10
1631.757718108869
 20
169.1686332470155
 30
0.0
 11
1617.257677684003
 21
169.1686332470155
 31
0.0
  0
DIMENSION
  5
8555
330
5F6E
100
AcDbEntity
  8
标注
 48
5.0
100
AcDbDimension
  2
*D1
 10
1635.699858433046
 20
153.1686972469332
 30
0.0
 11
1635.699858433074
 21
161.1686652469889
 31
0.0
 70
   160
 71
     5
 42
15.9999360000823
  3
副本STANDARD
100
AcDbAlignedDimension
 13
1631.757718108869
 23
169.1686332470155
 33
0.0
 14
1631.757718108869
 24
153.1686972469332
 34
0.0
 50
90.0
100
AcDbRotatedDimension
  0
DIMENSION
  5
8556
330
5F6E
100
AcDbEntity
  8
标注
 48
5.0
100
AcDbDimension
  2
*D2
 10
1601.757641259135
 20
148.217434261056
 30
0.0
 11
1610.007657471571
 21
148.217434261056
 31
0.0
 70
   160
 71
     5
 42
14.50004042486489
  3
副本STANDARD
100
AcDbAlignedDimension
 13
1616.257681684
 23
153.1686972469332
 33
0.0
 14
1601.757641259135
 24
153.1686972469332
 34
0.0
100
AcDbRotatedDimension
  0
DIMENSION
  5
8557
330
5F6E
100
AcDbEntity
  8
标注
 48
5.0
100
AcDbDimension
  2
*D3
 10
1600.320639133158
 20
146.4609213673575
 30
0.0
 11
1616.757679684009
 21
146.4609213673575
 31
0.0
 70
   160
 71
     5
 42
32.87408110170031
  3
副本STANDARD
100
AcDbAlignedDimension
 13
1633.194720234859
 23
150.6687072469322
 33
0.0
 14
1600.320639133158
 24
150.6687072469322
 34
0.0
100
AcDbRotatedDimension
  0
LINE
  5
8558
330
5F6E
100
AcDbEntity
  8
0
 48
5.0
100
AcDbLine
 10
1631.757718108869
 20
162.0566936635105
 30
0.0
 11
1631.757718108869
 21
162.0566936635105
 31
0.0
  0
REGION
  5
8559
330
5F6E
100
AcDbEntity
  8
0
100
AcDbModelerGeometry
 70
     1
  1
mogoo nm m o          
  1
ni ^ *+0;:,4 ^ *+0\^ [ ng ^ LR nmqoqoqjgmm QK o  
  1
mjqlffffffffffffff fqfffffffffffffffj:rooh n:rono 
  1
>,27:>;:- {rn rn _nm mnmqoqoqjgmm |
  1
=0;& {rn rn {rn {m {rn {rn |
  1
3*2/ {rn rn {rn {rn {l {n |
  1
,7:33 {rn rn {rn {rn {rn {k {rn {m |
  1
9><: {rn rn {rn {rn {j {l {rn {i 90-(>-; ;0*=3: 0*+ |
  1
300/ {rn rn {rn {rn {h {k |
  1
/3>1:r,*-9><: {rn rn {rn niofqoohiinkhnjihm nikqkkkmllmkhonjjm o o o n roqolfliffmnmjffffffi o o -:):-,:@) V V V V |
  1
<0:;8: {rn rn {rn {h {h {rn {g -:):-,:; {j {rn |
  1
:;8: {rn rn {rn {f o {f iqmglngjlohnhfjgim {h {no 90-(>-; _h *1410(1 |
  1
):-+:' {rn rn {rn {g {nn |
  1
:336/,:r<*-): {rn rn {rn niofqoohiinkhnjihm nikqkkkmllmkhonjjm o ro ro rn rmqmglkjjkllohfffff o o n V V |
  1
/061+ {rn rn {rn nioiqhmkmoiolgkfjg nikqkkkmllmkhonjjm o |
  0
CIRCLE
  5
855A
330
5F6E
100
AcDbEntity
  8
细实线
100
AcDbCircle
 10
1609.007661471567
 20
164.4442332470155
 30
0.0
 40
2.1653456693
  0
CIRCLE
  5
855C
330
5F6E
100
AcDbEntity
  8
0
100
AcDbCircle
 10
1609.007661471567
 20
164.4442332470155
 30
0.0
 40
1.791331417329837
  0
LINE
  5
855E
330
5F6E
100
AcDbEntity
  8
0
100
AcDbLine
 10
1601.757641259135
 20
153.1686972469332
 30
0.0
 11
1607.696571785593
 21
162.5746844912469
 31
0.0
  0
LINE
  5
855F
330
5F6E
100
AcDbEntity
  8
0
100
AcDbLine
 10
1601.757641259135
 20
169.1686332470155
 30
0.0
 11
1607.068498754236
 21
165.8468355046719
 31
0.0
  0
DIMENSION
  5
8560
330
5F6E
100
AcDbEntity
  8
标注
100
AcDbDimension
  2
*D4
 10
1639.444333155195
 20
149.9187102469406
 30
0.0
 11
1639.444333155224
 21
160.2936687469988
 31
0.0
 70
   160
 71
     5
 42
20.74991700005808
  3
副本Standard$0
100
AcDbAlignedDimension
 13
1633.194720234859
 23
170.6686272469987
 33
0.0
 14
1616.757679684009
 24
149.9187102469406
 34
0.0
 50
90.0
100
AcDbRotatedDimension
1001
ACAD
1000
DSTYLE
1002
{
1070
     3
1000
"
1070
    41
1040
0.65
1070
    42
1040
0.88
1070
    43
1040
0.015
1070
    44
1040
0.32
1070
    79
1070
     0
1070
   140
1040
0.65
1070
   147
1040
0.3
1070
   171
1070
     1
1070
   179
1070
     0
1070
   271
1070
     3
1070
   272
1070
     3
1070
   273
1070
     2
1070
   274
1070
     1
1070
   276
1070
     2
1070
   277
1070
     5
1070
   278
1070
    46
1070
   279
1070
     2
1070
   284
1070
     8
1070
   285
1070
     8
1070
   286
1070
     8
1070
   345
1005
5F5E
1070
   346
1005
5F5E
1070
   347
1005
5F5E
1002
}
  0
LINE
  5
8561
330
5F6E
100
AcDbEntity
  8
0
100
AcDbLine
 10
1616.257681684
 20
153.1686972469332
 30
0.0
 11
1610.31875115755
 21
162.5746844912537
 31
0.0
  0
LINE
  5
8562
330
5F6E
100
AcDbEntity
  8
0
100
AcDbLine
 10
1616.257681684
 20
169.1686332470155
 30
0.0
 11
1610.946824188913
 21
165.8468355046719
 31
0.0
  0
LINE
  5
8563
102
{ACAD_REACTORS
330
8574
102
}
330
5F6E
100
AcDbEntity
  8
0
100
AcDbLine
 10
1617.257677684003
 20
169.1686332470155
 30
0.0
 11
1617.257677684003
 21
153.1686972469332
 31
0.0
  0
LINE
  5
8564
102
{ACAD_REACTORS
330
8574
102
}
330
5F6E
100
AcDbEntity
  8
虚线
 48
0.3
100
AcDbLine
 10
1617.198622802123
 20
169.2276881288961
 30
0.0
 11
1617.198622802123
 21
153.1096423650526
 31
0.0
  0
LINE
  5
8565
330
5F6E
100
AcDbEntity
  8
0
100
AcDbLine
 10
1616.257681684
 20
169.1686332470155
 30
0.0
 11
1616.257681684
 21
153.1686972469332
 31
0.0
  0
LINE
  5
8566
330
5F6E
100
AcDbEntity
  8
虚线
 48
0.3
100
AcDbLine
 10
1616.316736565895
 20
169.2276881288961
 30
0.0
 11
1616.316736565895
 21
153.1096423650526
 31
0.0
  0
LINE
  5
8567
330
5F6E
100
AcDbEntity
  8
0
100
AcDbLine
 10
1616.257681684
 20
169.1686332470155
 30
0.0
 11
1601.757641259135
 21
169.1686332470155
 31
0.0
  0
LINE
  5
8568
102
{ACAD_REACTORS
330
8574
102
}
330
5F6E
100
AcDbEntity
  8
0
100
AcDbLine
 10
1617.257677684003
 20
153.1686972469332
 30
0.0
 11
1631.757718108869
 21
153.1686972469332
 31
0.0
  0
REGION
  5
8569
330
5F6E
100
AcDbEntity
  8
0
100
AcDbModelerGeometry
 70
     1
  1
mogoo nm m o          
  1
ni ^ *+0;:,4 ^ *+0\^ [ ng ^ LR nmqoqoqjgmm QK o  
  1
mjqlffffffffffffff fqfffffffffffffffj:rooh n:rono 
  1
>,27:>;:- {rn rn _nm mnmqoqoqjgmm |
  1
=0;& {rn rn {rn {m {rn {rn |
  1
3*2/ {rn rn {rn {rn {l {n |
  1
,7:33 {rn rn {rn {rn {rn {k {rn {m |
  1
9><: {rn rn {rn {rn {j {l {rn {i 90-(>-; ;0*=3: 0*+ |
  1
300/ {rn rn {rn {rn {h {k |
  1
/3>1:r,*-9><: {rn rn {rn nimkqjohifhgfikli nikqkkkmllmkhonjjm o o o n roqolfliffmnmjffffffi o o -:):-,:@) V V V V |
  1
<0:;8: {rn rn {rn {h {h {rn {g -:):-,:; {j {rn |
  1
:;8: {rn rn {rn {f o {f iqmglngjlohnhfjgim {h {no 90-(>-; _h *1410(1 |
  1
):-+:' {rn rn {rn {g {nn |
  1
:336/,:r<*-): {rn rn {rn nimkqjohifhgfikli nikqkkkmllmkhonjjm o ro ro rn rmqmglkjjkllohfffff o o n V V |
  1
/061+ {rn rn {rn nimmqmmkmkmkillikk nikqkkkmllmkhonjjm o |
  0
CIRCLE
  5
856A
330
5F6E
100
AcDbEntity
  8
细实线
100
AcDbCircle
 10
1624.507697896436
 20
164.4442332470155
 30
0.0
 40
2.1653456693
  0
CIRCLE
  5
856C
330
5F6E
100
AcDbEntity
  8
0
100
AcDbCircle
 10
1624.507697896436
 20
164.4442332470155
 30
0.0
 40
1.791331417329837
  0
LINE
  5
856E
330
5F6E
100
AcDbEntity
  8
0
100
AcDbLine
 10
1617.257677684003
 20
153.1686972469332
 30
0.0
 11
1623.196608210462
 21
162.5746844912467
 31
0.0
  0
LINE
  5
856F
330
5F6E
100
AcDbEntity
  8
0
100
AcDbLine
 10
1617.257677684003
 20
169.1686332470155
 30
0.0
 11
1622.568535179105
 21
165.8468355046719
 31
0.0
  0
LINE
  5
8570
102
{ACAD_REACTORS
330
8574
102
}
330
5F6E
100
AcDbEntity
  8
0
100
AcDbLine
 10
1631.757718108869
 20
153.1686972469332
 30
0.0
 11
1625.81878758242
 21
162.574684491254
 31
0.0
  0
LINE
  5
8571
330
5F6E
100
AcDbEntity
  8
0
100
AcDbLine
 10
1631.757718108869
 20
169.1686332470155
 30
0.0
 11
1626.446860613782
 21
165.8468355046719
 31
0.0
  0
DIMENSION
  5
8572
102
{ACAD_XDICTIONARY
360
8573
102
}
102
{ACAD_REACTORS
330
8574
102
}
330
5F6E
100
AcDbEntity
  8
标注线
 48
5.0
100
AcDbDimension
  2
*D9
 10
1631.757718108869
 20
148.217434261056
 30
0.0
 11
1624.507697896436
 21
148.217434261056
 31
0.0
 70
    32
 71
     5
 42
14.50004042486603
  3
副本STANDARD
100
AcDbAlignedDimension
 13
1617.257677684003
 23
153.1686972469332
 33
0.0
 14
1631.757718108869
 24
153.1686972469332
 34
0.0
100
AcDbRotatedDimension
  0
LINE
  5
8575
330
5F6E
100
AcDbEntity
  8
虚线
 48
0.3
100
AcDbLine
 10
1614.9860332273
 20
169.2276881288961
 30
0.0
 11
1618.529326140704
 21
169.2276881288961
 31
0.0
  0
LINE
  5
8576
330
5F6E
100
AcDbEntity
  8
虚线
 48
5.0
100
AcDbLine
 10
1614.9860332273
 20
153.1096423650526
 30
0.0
 11
1618.529326140704
 21
153.1096423650526
 31
0.0
  0
LINE
  5
8577
330
5F6E
100
AcDbEntity
  8
虚线
 48
5.0
100
AcDbLine
 10
1614.9860332273
 20
153.050587483172
 30
0.0
 11
1618.529326140704
 21
153.050587483172
 31
0.0
  0
LINE
  5
8578
330
5F6E
100
AcDbEntity
  8
虚线
 48
5.0
100
AcDbLine
 10
1618.529326140704
 20
153.1096423650526
 30
0.0
 11
1618.529326140704
 21
153.050587483172
 31
0.0
  0
LINE
  5
8579
330
5F6E
100
AcDbEntity
  8
虚线
 48
5.0
100
AcDbLine
 10
1614.9860332273
 20
153.1096423650526
 30
0.0
 11
1614.9860332273
 21
153.050587483172
 31
0.0
  0
LINE
  5
857A
330
5F6E
100
AcDbEntity
  8
0
100
AcDbLine
 10
1600.320639133145
 20
170.6686272469987
 30
0.0
 11
1600.320639133158
 21
150.6687072469322
 31
0.0
  0
LINE
  5
857B
330
5F6E
100
AcDbEntity
  8
0
100
AcDbLine
 10
1633.194720234859
 20
170.6686272469987
 30
0.0
 11
1600.320639133158
 21
170.6686272469987
 31
0.0
  0
LINE
  5
857C
330
5F6E
100
AcDbEntity
  8
0
100
AcDbLine
 10
1633.194720234859
 20
150.6687072469322
 30
0.0
 11
1633.194720234859
 21
170.6686272469987
 31
0.0
  0
ARC
  5
857D
330
5F6E
100
AcDbEntity
  8
0
100
AcDbCircle
 10
1616.757679684067
 20
330.8869436045559
 30
0.0
 40
180.9662648615713
100
AcDbArc
 50
264.7886816658759
 51
275.2113183341241
  0
ARC
  5
857E
330
5F6E
100
AcDbEntity
  8
虚线
 48
0.3
100
AcDbCircle
 10
1616.757679684067
 20
330.8873559849561
 30
0.0
 40
180.9076223600797
100
AcDbArc
 50
264.7885514330824
 51
275.2114485669176
  0
LINE
  5
857F
330
5F6E
100
AcDbEntity
  8
虚线
 48
10.0
100
AcDbLine
 10
1632.446691730917
 20
152.1687012469445
 30
0.0
 11
1632.446691730917
 21
156.5742190579522
 31
0.0
  0
LINE
  5
8580
330
5F6E
100
AcDbEntity
  8
虚线
 48
0.3
100
AcDbLine
 10
1601.068667637087
 20
156.5742190579522
 30
0.0
 11
1601.068667637087
 21
152.1687012469445
 31
0.0
  0
LINE
  5
8581
330
5F6E
100
AcDbEntity
  8
虚线
 48
0.3
100
AcDbLine
 10
1601.068667637087
 20
152.1687012469445
 30
0.0
 11
1632.446691730917
 21
152.1687012469445
 31
0.0
  0
LINE
  5
8582
330
5F6E
100
AcDbEntity
  8
虚线
 48
0.3
100
AcDbLine
 10
1600.37969401504
 20
170.6686272469987
 30
0.0
 11
1600.37969401504
 21
150.72565124298
 31
0.0
  0
LINE
  5
8583
330
5F6E
100
AcDbEntity
  8
虚线
 48
0.3
100
AcDbLine
 10
1633.135665352964
 20
170.6095723651181
 30
0.0
 11
1600.37969401504
 21
170.6095723651181
 31
0.0
  0
LINE
  5
8584
330
5F6E
100
AcDbEntity
  8
虚线
 48
0.3
100
AcDbLine
 10
1601.698586377254
 20
169.2276881288961
 30
0.0
 11
1601.698586377254
 21
153.1096423650526
 31
0.0
  0
LINE
  5
8585
330
5F6E
100
AcDbEntity
  8
虚线
 48
0.3
100
AcDbLine
 10
1601.698586377254
 20
153.1096423650526
 30
0.0
 11
1616.316736565895
 21
153.1096423650526
 31
0.0
  0
LINE
  5
8586
330
5F6E
100
AcDbEntity
  8
虚线
 48
10.0
100
AcDbLine
 10
1617.198622802123
 20
153.1096423650526
 30
0.0
 11
1631.81677299075
 21
153.1096423650526
 31
0.0
  0
LINE
  5
8587
330
5F6E
100
AcDbEntity
  8
虚线
 48
0.3
100
AcDbLine
 10
1631.81677299075
 20
169.2276881288961
 30
0.0
 11
1601.698586377254
 21
169.2276881288961
 31
0.0
  0
LINE
  5
8588
330
5F6E
100
AcDbEntity
  8
虚线
 48
0.3
100
AcDbLine
 10
1633.135665352964
 20
170.6686272469987
 30
0.0
 11
1633.135665352964
 21
150.72565124298
 31
0.0
  0
LINE
  5
8589
330
5F6E
100
AcDbEntity
  8
虚线
 48
0.3
100
AcDbLine
 10
1631.81677299075
 20
169.2276881288961
 30
0.0
 11
1631.81677299075
 21
153.1096423650526
 31
0.0
  0
LINE
  5
858A
330
5F6E
100
AcDbEntity
  8
0
100
AcDbLine
 10
1606.724206038495
 20
181.7504480052033
 30
0.0
 11
1611.291116904653
 21
181.7504480052033
 31
0.0
  0
LINE
  5
858B
330
5F6E
100
AcDbEntity
  8
0
100
AcDbLine
 10
1601.757641259135
 20
191.8880180847387
 30
0.0
 11
1631.757718108869
 21
191.8880180847387
 31
0.0
  0
LINE
  5
858D
330
5F6E
100
AcDbEntity
  8
0
100
AcDbLine
 10
1600.320639133145
 20
191.7895932815848
 30
0.0
 11
1600.320639133145
 21
182.9864788878479
 31
0.0
  0
ARC
  5
858E
330
5F6E
100
AcDbEntity
  8
0
100
AcDbCircle
 10
1600.419063936298
 20
182.9864788878479
 30
0.0
 40
0.09842480315
100
AcDbArc
 50
180.0
 51
270.0
  0
LINE
  5
858F
330
5F6E
100
AcDbEntity
  8
0
100
AcDbLine
 10
1601.698586377254
 20
191.8289632028289
 30
0.0
 11
1601.698586377254
 21
182.8880540846941
 31
0.0
  0
LINE
  5
8590
330
5F6E
100
AcDbEntity
  8
0
100
AcDbLine
 10
1600.419063936298
 20
191.8880180847387
 30
0.0
 11
1601.757641259135
 21
191.8880180847387
 31
0.0
  0
ARC
  5
8591
330
5F6E
100
AcDbEntity
  8
0
100
AcDbCircle
 10
1600.419063936298
 20
191.7895932815848
 30
0.0
 40
0.09842480315
100
AcDbArc
 50
90.0
 51
180.0
  0
LINE
  5
8592
330
5F6E
100
AcDbEntity
  8
0
100
AcDbLine
 10
1600.419063936298
 20
182.8880540846941
 30
0.0
 11
1601.070636133151
 21
182.8880540846941
 31
0.0
  0
DIMENSION
  5
8593
330
5F6E
100
AcDbEntity
  8
标注
100
AcDbDimension
  2
*D5
 10
1635.654119851001
 20
182.8880540846941
 30
0.0
 11
1635.654119851001
 21
187.3880360847166
 31
0.0
 70
    32
 71
     5
 42
8.99996400004457
  3
副本Standard$0
100
AcDbAlignedDimension
 13
1633.096295431705
 23
191.8880180847387
 33
0.0
 14
1633.096295431705
 24
182.8880540846941
 34
0.0
 50
90.0
100
AcDbRotatedDimension
1001
ACAD
1000
DSTYLE
1002
{
1070
     3
1000
"
1070
    41
1040
0.65
1070
    42
1040
0.88
1070
    43
1040
0.015
1070
    44
1040
0.32
1070
    79
1070
     0
1070
   140
1040
0.65
1070
   147
1040
0.3
1070
   171
1070
     1
1070
   179
1070
     0
1070
   271
1070
     3
1070
   272
1070
     3
1070
   273
1070
     2
1070
   274
1070
     1
1070
   276
1070
     2
1070
   277
1070
     5
1070
   278
1070
    46
1070
   279
1070
     2
1070
   284
1070
     8
1070
   285
1070
     8
1070
   286
1070
     8
1070
   345
1005
5F5E
1070
   346
1005
5F5E
1070
   347
1005
5F5E
1002
}
  0
LINE
  5
8596
330
5F6E
100
AcDbEntity
  8
0
100
AcDbLine
 10
1601.698586377254
 20
182.8880540846941
 30
0.0
 11
1601.698586377254
 21
182.0020430361929
 31
0.0
  0
LINE
  5
8597
330
5F6E
100
AcDbEntity
  8
0
100
AcDbLine
 10
1606.672489775844
 20
181.7504480052033
 30
0.0
 11
1611.36411275309
 21
181.7504480052033
 31
0.0
  0
ARC
  5
8598
330
5F6E
100
AcDbEntity
  8
0
100
AcDbCircle
 10
1601.79307418828
 20
182.0020430361929
 30
0.0
 40
0.094487811024
100
AcDbArc
 50
180.0
 51
269.2073231410275
  0
ARC
  5
8599
330
5F6E
100
AcDbEntity
  8
虚线
 48
10.0
100
AcDbCircle
 10
1601.79307418828
 20
182.0020430361929
 30
0.0
 40
0.035432929134
100
AcDbArc
 50
180.0
 51
269.2073231410275
  0
LINE
  5
859A
330
5F6E
100
AcDbEntity
  8
虚线
 48
10.0
100
AcDbLine
 10
1601.698586377254
 20
191.8289632028289
 30
0.0
 11
1631.816772990764
 21
191.8289632028289
 31
0.0
  0
LINE
  5
859B
330
5F6E
100
AcDbEntity
  8
虚线
 48
0.3
100
AcDbLine
 10
1600.37969401504
 20
191.7895932815848
 30
0.0
 11
1600.37969401504
 21
182.9864788878479
 31
0.0
  0
ARC
  5
859C
330
5F6E
100
AcDbEntity
  8
虚线
 48
10.0
100
AcDbCircle
 10
1600.419063936298
 20
182.9864788878479
 30
0.0
 40
0.03936992126
100
AcDbArc
 50
180.0
 51
270.0
  0
LINE
  5
859D
330
5F6E
100
AcDbEntity
  8
虚线
 48
0.3
100
AcDbLine
 10
1601.757641259135
 20
191.8880180847387
 30
0.0
 11
1601.757641259135
 21
182.8880540846941
 31
0.0
  0
LINE
  5
859E
330
5F6E
100
AcDbEntity
  8
虚线
 48
10.0
100
AcDbLine
 10
1600.419063936298
 20
191.8289632028289
 30
0.0
 11
1601.698586377254
 21
191.8289632028289
 31
0.0
  0
ARC
  5
859F
330
5F6E
100
AcDbEntity
  8
虚线
 48
10.0
100
AcDbCircle
 10
1600.419063936298
 20
191.7895932815848
 30
0.0
 40
0.03936992126
100
AcDbArc
 50
90.0
 51
180.0
  0
LINE
  5
85A0
330
5F6E
100
AcDbEntity
  8
虚线
 48
10.0
100
AcDbLine
 10
1600.419063936298
 20
182.9471089665748
 30
0.0
 11
1601.070636133151
 21
182.9471089665748
 31
0.0
  0
LINE
  5
85A2
330
5F6E
100
AcDbEntity
  8
虚线
 48
10.0
100
AcDbLine
 10
1601.757641259135
 20
182.8880540846941
 30
0.0
 11
1601.757641259135
 21
182.0020430361929
 31
0.0
  0
LINE
  5
85A3
330
5F6E
100
AcDbEntity
  8
0
100
AcDbLine
 10
1606.724205777493
 20
181.7504480052033
 30
0.0
 11
1611.291116643651
 21
181.7504480052033
 31
0.0
  0
LINE
  5
85A4
330
5F6E
100
AcDbEntity
  8
0
100
AcDbLine
 10
1606.672489514842
 20
181.7504480052033
 30
0.0
 11
1611.364112492102
 21
181.7504480052033
 31
0.0
  0
LINE
  5
85A5
330
5F6E
100
AcDbEntity
  8
0
100
AcDbLine
 10
1601.791767008022
 20
181.9075642676211
 30
0.0
 11
1606.672489514812
 21
181.7504480052033
 31
0.0
  0
LINE
  5
85A6
330
5F6E
100
AcDbEntity
  8
虚线
 48
10.0
100
AcDbLine
 10
1601.792583995685
 20
181.9666134979857
 30
0.0
 11
1606.651210190102
 21
181.8095028871132
 31
0.0
  0
LINE
  5
85A7
330
5F6E
100
AcDbEntity
  8
0
100
AcDbLine
 10
1631.723592359981
 20
181.9075642676211
 30
0.0
 11
1626.86414917796
 21
181.7504480052033
 31
0.0
  0
LINE
  5
85A8
330
5F6E
100
AcDbEntity
  8
虚线
 48
0.3
100
AcDbLine
 10
1631.722775372332
 20
181.9666134979857
 30
0.0
 11
1626.864148442173
 21
181.8095028870841
 31
0.0
  0
LINE
  5
85A9
330
5F6E
100
AcDbEntity
  8
0
100
AcDbLine
 10
1606.724206038452
 20
181.7504480052033
 30
0.0
 11
1611.29111690461
 21
181.7504480052033
 31
0.0
  0
LINE
  5
85AA
330
5F6E
100
AcDbEntity
  8
0
100
AcDbLine
 10
1606.6724897758
 20
181.7504480052033
 30
0.0
 11
1611.364112753062
 21
181.7504480052033
 31
0.0
  0
LINE
  5
85AB
330
5F6E
100
AcDbEntity
  8
虚线
 48
5.0
100
AcDbLine
 10
1611.364112231143
 20
181.8095028870841
 30
0.0
 11
1606.651210190102
 21
181.8095028871132
 31
0.0
  0
ARC
  5
85AC
330
5F6E
100
AcDbEntity
  8
虚线
 48
5.0
100
AcDbCircle
 10
1606.651210190087
 20
181.6913931233228
 30
0.0
 40
0.1181097637799999
100
AcDbArc
 50
26.56505108203579
 51
90.0
  0
ARC
  5
85AD
330
5F6E
100
AcDbEntity
  8
虚线
 48
5.0
100
AcDbCircle
 10
1611.364112753062
 20
181.6913931233228
 30
0.0
 40
0.1181097637799999
100
AcDbArc
 50
90.0
 51
153.4349486719421
  0
ARC
  5
85AE
330
5F6E
100
AcDbEntity
  8
虚线
 48
5.0
100
AcDbCircle
 10
1606.878813726482
 20
181.6323382414421
 30
0.0
 40
0.05905488189
100
AcDbArc
 50
206.5650516505872
 51
269.9999999364671
  0
ARC
  5
85AF
330
5F6E
100
AcDbEntity
  8
虚线
 48
5.0
100
AcDbCircle
 10
1611.136509216666
 20
181.6323382414421
 30
0.0
 40
0.05905488189
100
AcDbArc
 50
270.0000000426862
 51
333.4349477714644
  0
LINE
  5
85B0
330
5F6E
100
AcDbEntity
  8
虚线
 48
5.0
100
AcDbLine
 10
1611.189329508784
 20
181.6059280953757
 30
0.0
 11
1611.25847216881
 21
181.7442134154557
 31
0.0
  0
LINE
  5
85B1
330
5F6E
100
AcDbEntity
  8
虚线
 48
5.0
100
AcDbLine
 10
1606.878813726482
 20
181.5732833595324
 30
0.0
 11
1607.236015014872
 21
181.5732833595324
 31
0.0
  0
LINE
  5
85B2
330
5F6E
100
AcDbEntity
  8
虚线
 48
5.0
100
AcDbLine
 10
1610.779307928276
 20
181.5142284776519
 30
0.0
 11
1610.779307928276
 21
181.5732833595324
 31
0.0
  0
LINE
  5
85B3
330
5F6E
100
AcDbEntity
  8
虚线
 48
5.0
100
AcDbLine
 10
1606.825993434364
 20
181.6059280953757
 30
0.0
 11
1606.756850774325
 21
181.7442134154557
 31
0.0
  0
LINE
  5
85B4
330
5F6E
100
AcDbEntity
  8
虚线
 48
5.0
100
AcDbLine
 10
1607.236015014872
 20
181.5142284776519
 30
0.0
 11
1607.236015014872
 21
181.5732833595324
 31
0.0
  0
LINE
  5
85B5
330
5F6E
100
AcDbEntity
  8
虚线
 48
5.0
100
AcDbLine
 10
1610.779307928276
 20
181.5732833595324
 30
0.0
 11
1611.136509216666
 21
181.5732833595324
 31
0.0
  0
LINE
  5
85B6
330
5F6E
100
AcDbEntity
  8
虚线
 48
5.0
100
AcDbLine
 10
1607.236015014872
 20
181.5732833595324
 30
0.0
 11
1610.779307928276
 21
181.5732833595324
 31
0.0
  0
LINE
  5
85B7
330
5F6E
100
AcDbEntity
  8
0
100
AcDbLine
 10
1606.773173142246
 20
181.5795179493382
 30
0.0
 11
1606.704030482205
 21
181.7178032693892
 31
0.0
  0
ARC
  5
85B8
330
5F6E
100
AcDbEntity
  8
0
100
AcDbCircle
 10
1606.651210190087
 20
181.6913931233228
 30
0.0
 40
0.05905488189
100
AcDbArc
 50
26.56505108203579
 51
90.0
  0
ARC
  5
85B9
330
5F6E
100
AcDbEntity
  8
0
100
AcDbCircle
 10
1606.878813726482
 20
181.6323382414421
 30
0.0
 40
0.1181097637799999
100
AcDbArc
 50
206.5650516505872
 51
269.9999999364671
  0
LINE
  5
85BA
330
5F6E
100
AcDbEntity
  8
0
100
AcDbLine
 10
1606.878813726482
 20
181.5142284776519
 30
0.0
 11
1607.236015014872
 21
181.5142284776519
 31
0.0
  0
LINE
  5
85BB
330
5F6E
100
AcDbEntity
  8
0
  6
Continuous
100
AcDbLine
 10
1607.236015014872
 20
181.5142284776519
 30
0.0
 11
1610.779307928276
 21
181.5142284776519
 31
0.0
  0
LINE
  5
85BC
330
5F6E
100
AcDbEntity
  8
0
100
AcDbLine
 10
1610.779307928276
 20
181.5142284776519
 30
0.0
 11
1611.136509216666
 21
181.5142284776519
 31
0.0
  0
ARC
  5
85BD
330
5F6E
100
AcDbEntity
  8
0
100
AcDbCircle
 10
1611.136509216666
 20
181.6323382414421
 30
0.0
 40
0.1181097637799999
100
AcDbArc
 50
270.0000000426862
 51
333.4349477714644
  0
LINE
  5
85BE
330
5F6E
100
AcDbEntity
  8
0
100
AcDbLine
 10
1611.242149800903
 20
181.5795179493382
 30
0.0
 11
1611.311292460943
 21
181.7178032693892
 31
0.0
  0
ARC
  5
85BF
330
5F6E
100
AcDbEntity
  8
0
100
AcDbCircle
 10
1611.364112753062
 20
181.6913931233228
 30
0.0
 40
0.05905488189
100
AcDbArc
 50
90.0
 51
153.4349486719421
  0
LINE
  5
85C0
330
5F6E
100
AcDbEntity
  8
0
100
AcDbLine
 10
1633.194720234859
 20
191.7895932815848
 30
0.0
 11
1633.194720234859
 21
182.9864788878479
 31
0.0
  0
ARC
  5
85C1
330
5F6E
100
AcDbEntity
  8
0
100
AcDbCircle
 10
1633.096295431705
 20
182.9864788878479
 30
0.0
 40
0.09842480315
100
AcDbArc
 50
270.0
 51
0.0
  0
LINE
  5
85C2
330
5F6E
100
AcDbEntity
  8
虚线
 48
10.0
100
AcDbLine
 10
1631.816772990764
 20
191.8880180847387
 30
0.0
 11
1631.816772990764
 21
182.8880540846941
 31
0.0
  0
LINE
  5
85C3
330
5F6E
100
AcDbEntity
  8
0
100
AcDbLine
 10
1633.096295431705
 20
191.8880180847387
 30
0.0
 11
1631.757718108869
 21
191.8880180847387
 31
0.0
  0
ARC
  5
85C4
330
5F6E
100
AcDbEntity
  8
0
100
AcDbCircle
 10
1633.096295431705
 20
191.7895932815848
 30
0.0
 40
0.09842480315
100
AcDbArc
 50
0.0
 51
90.0
  0
LINE
  5
85C5
330
5F6E
100
AcDbEntity
  8
0
100
AcDbLine
 10
1633.096295431705
 20
182.8880540846941
 30
0.0
 11
1632.444723234853
 21
182.8880540846941
 31
0.0
  0
LINE
  5
85C7
330
5F6E
100
AcDbEntity
  8
0
100
AcDbLine
 10
1631.816772990764
 20
182.8880540846941
 30
0.0
 11
1631.816772990764
 21
182.0020430361929
 31
0.0
  0
ARC
  5
85C8
330
5F6E
100
AcDbEntity
  8
0
100
AcDbCircle
 10
1631.722285179738
 20
182.0020430361929
 30
0.0
 40
0.094487811024
100
AcDbArc
 50
270.7926768589725
 51
0.0
  0
ARC
  5
85C9
330
5F6E
100
AcDbEntity
  8
虚线
 48
10.0
100
AcDbCircle
 10
1631.722285179738
 20
182.0020430361929
 30
0.0
 40
0.035432929134
100
AcDbArc
 50
270.7926768589725
 51
0.0
  0
LINE
  5
85CA
330
5F6E
100
AcDbEntity
  8
虚线
 48
0.3
100
AcDbLine
 10
1633.135665352964
 20
191.7895932815848
 30
0.0
 11
1633.135665352964
 21
182.9864788878479
 31
0.0
  0
ARC
  5
85CB
330
5F6E
100
AcDbEntity
  8
虚线
 48
10.0
100
AcDbCircle
 10
1633.096295431705
 20
182.9864788878479
 30
0.0
 40
0.03936992126
100
AcDbArc
 50
270.0
 51
0.0
  0
LINE
  5
85CC
330
5F6E
100
AcDbEntity
  8
0
100
AcDbLine
 10
1631.816772990764
 20
191.8880180847387
 30
0.0
 11
1631.816772990764
 21
182.8880540846941
 31
0.0
  0
LINE
  5
85CD
330
5F6E
100
AcDbEntity
  8
虚线
 48
0.3
100
AcDbLine
 10
1631.757718108869
 20
191.8880180847387
 30
0.0
 11
1631.757718108869
 21
182.8880540846941
 31
0.0
  0
LINE
  5
85CE
330
5F6E
100
AcDbEntity
  8
虚线
 48
10.0
100
AcDbLine
 10
1633.096295431705
 20
191.8289632028289
 30
0.0
 11
1631.816772990764
 21
191.8289632028289
 31
0.0
  0
ARC
  5
85CF
330
5F6E
100
AcDbEntity
  8
虚线
 48
10.0
100
AcDbCircle
 10
1633.096295431705
 20
191.7895932815848
 30
0.0
 40
0.03936992126
100
AcDbArc
 50
0.0
 51
90.0
  0
LINE
  5
85D0
330
5F6E
100
AcDbEntity
  8
虚线
 48
10.0
100
AcDbLine
 10
1633.096295431705
 20
182.9471089665748
 30
0.0
 11
1632.444723234853
 21
182.9471089665748
 31
0.0
  0
LINE
  5
85D1
330
5F6E
100
AcDbEntity
  8
虚线
 48
10.0
100
AcDbLine
 10
1631.757718108869
 20
182.8880540846941
 30
0.0
 11
1631.757718108869
 21
182.0020430361929
 31
0.0
  0
DIMENSION
  5
85D2
330
5F6E
100
AcDbEntity
  8
标注
100
AcDbDimension
  2
*D0
 10
1637.587304036629
 20
181.8880581925348
 30
0.0
 11
1637.587304036629
 21
186.8880381386369
 31
0.0
 70
   160
 71
     5
 42
9.999959892203833
  3
副本Standard$0
100
AcDbAlignedDimension
 13
1633.096295431705
 23
191.8880180847387
 33
0.0
 14
1631.075910486092
 24
181.8880581925348
 34
0.0
 50
90.0
100
AcDbRotatedDimension
1001
ACAD
1000
DSTYLE
1002
{
1070
     3
1000
"
1070
    41
1040
0.65
1070
    42
1040
0.88
1070
    43
1040
0.015
1070
    44
1040
0.32
1070
    79
1070
     0
1070
   140
1040
0.65
1070
   147
1040
0.3
1070
   171
1070
     1
1070
   179
1070
     0
1070
   271
1070
     3
1070
   272
1070
     3
1070
   273
1070
     2
1070
   274
1070
     1
1070
   276
1070
     2
1070
   277
1070
     5
1070
   278
1070
    46
1070
   279
1070
     2
1070
   284
1070
     8
1070
   285
1070
     8
1070
   286
1070
     8
1070
   345
1005
5F5E
1070
   346
1005
5F5E
1070
   347
1005
5F5E
1002
}
  0
LINE
  5
85D4
330
5F6E
100
AcDbEntity
  8
0
100
AcDbLine
 10
1616.316736565895
 20
191.8289632028289
 30
0.0
 11
1616.316736565895
 21
182.8880540846941
 31
0.0
  0
LINE
  5
85D5
330
5F6E
100
AcDbEntity
  8
0
100
AcDbLine
 10
1616.316736565895
 20
182.8880540846941
 30
0.0
 11
1616.316736565895
 21
182.0020430361929
 31
0.0
  0
ARC
  5
85D6
330
5F6E
100
AcDbEntity
  8
0
100
AcDbCircle
 10
1616.222248754869
 20
182.0020430361929
 30
0.0
 40
0.094487811024
100
AcDbArc
 50
270.7926768589725
 51
0.0
  0
ARC
  5
85D7
330
5F6E
100
AcDbEntity
  8
虚线
 48
0.3
100
AcDbCircle
 10
1616.222248754869
 20
182.0020430361929
 30
0.0
 40
0.035432929134
100
AcDbArc
 50
270.7926768589725
 51
0.0
  0
LINE
  5
85D8
330
5F6E
100
AcDbEntity
  8
虚线
 48
0.3
100
AcDbLine
 10
1616.257681684
 20
191.8880180847387
 30
0.0
 11
1616.257681684
 21
182.8880540846941
 31
0.0
  0
LINE
  5
85D9
330
5F6E
100
AcDbEntity
  8
虚线
 48
0.3
100
AcDbLine
 10
1616.257681684
 20
182.8880540846941
 30
0.0
 11
1616.257681684
 21
182.0020430361929
 31
0.0
  0
LINE
  5
85DA
330
5F6E
100
AcDbEntity
  8
0
100
AcDbLine
 10
1616.223555935127
 20
181.9075642676211
 30
0.0
 11
1611.342833428336
 21
181.7504480052033
 31
0.0
  0
LINE
  5
85DB
330
5F6E
100
AcDbEntity
  8
虚线
 48
0.3
100
AcDbLine
 10
1616.222738947463
 20
181.9666134979857
 30
0.0
 11
1611.364112753047
 21
181.8095028871132
 31
0.0
  0
LINE
  5
85DC
330
5F6E
100
AcDbEntity
  8
0
100
AcDbLine
 10
1622.224242463364
 20
181.7504480052033
 30
0.0
 11
1626.791153329522
 21
181.7504480052033
 31
0.0
  0
LINE
  5
85DD
330
5F6E
100
AcDbEntity
  8
0
100
AcDbLine
 10
1622.172526200713
 20
181.7504480052033
 30
0.0
 11
1626.86414917796
 21
181.7504480052033
 31
0.0
  0
LINE
  5
85DE
330
5F6E
100
AcDbEntity
  8
0
100
AcDbLine
 10
1622.224242202362
 20
181.7504480052033
 30
0.0
 11
1626.79115306852
 21
181.7504480052033
 31
0.0
  0
LINE
  5
85DF
330
5F6E
100
AcDbEntity
  8
0
100
AcDbLine
 10
1622.172525939711
 20
181.7504480052033
 30
0.0
 11
1626.864148916972
 21
181.7504480052033
 31
0.0
  0
LINE
  5
85E0
330
5F6E
100
AcDbEntity
  8
0
100
AcDbLine
 10
1622.224242463321
 20
181.7504480052033
 30
0.0
 11
1626.791153329478
 21
181.7504480052033
 31
0.0
  0
LINE
  5
85E1
330
5F6E
100
AcDbEntity
  8
0
100
AcDbLine
 10
1622.172526200669
 20
181.7504480052033
 30
0.0
 11
1626.86414917793
 21
181.7504480052033
 31
0.0
  0
LINE
  5
85E2
330
5F6E
100
AcDbEntity
  8
虚线
 48
0.3
100
AcDbLine
 10
1626.864148655998
 20
181.8095028870841
 30
0.0
 11
1622.151246614956
 21
181.8095028871132
 31
0.0
  0
ARC
  5
85E3
330
5F6E
100
AcDbEntity
  8
虚线
 48
5.0
100
AcDbCircle
 10
1622.151246614943
 20
181.6913931233228
 30
0.0
 40
0.1181097637799999
100
AcDbArc
 50
26.56505108203579
 51
90.0
  0
ARC
  5
85E4
330
5F6E
100
AcDbEntity
  8
虚线
 48
5.0
100
AcDbCircle
 10
1626.86414917793
 20
181.6913931233228
 30
0.0
 40
0.1181097637799999
100
AcDbArc
 50
90.0
 51
153.4349486719421
  0
ARC
  5
85E5
330
5F6E
100
AcDbEntity
  8
虚线
 48
5.0
100
AcDbCircle
 10
1622.378850151337
 20
181.6323382414421
 30
0.0
 40
0.05905488189
100
AcDbArc
 50
206.5650516505872
 51
269.9999999364671
  0
ARC
  5
85E6
330
5F6E
100
AcDbEntity
  8
虚线
 48
5.0
100
AcDbCircle
 10
1626.636545641535
 20
181.6323382414421
 30
0.0
 40
0.05905488189
100
AcDbArc
 50
270.0000000426862
 51
333.4349477714644
  0
LINE
  5
85E7
330
5F6E
100
AcDbEntity
  8
虚线
 48
5.0
100
AcDbLine
 10
1626.689365933639
 20
181.6059280953757
 30
0.0
 11
1626.758508593679
 21
181.7442134154557
 31
0.0
  0
LINE
  5
85E8
330
5F6E
100
AcDbEntity
  8
虚线
 48
5.0
100
AcDbLine
 10
1622.378850151337
 20
181.5732833595324
 30
0.0
 11
1622.736051439742
 21
181.5732833595324
 31
0.0
  0
LINE
  5
85E9
330
5F6E
100
AcDbEntity
  8
虚线
 48
5.0
100
AcDbLine
 10
1626.279344353131
 20
181.5142284776519
 30
0.0
 11
1626.279344353131
 21
181.5732833595324
 31
0.0
  0
LINE
  5
85EA
330
5F6E
100
AcDbEntity
  8
虚线
 48
5.0
100
AcDbLine
 10
1622.326029859233
 20
181.6059280953757
 30
0.0
 11
1622.256887199194
 21
181.7442134154557
 31
0.0
  0
LINE
  5
85EB
330
5F6E
100
AcDbEntity
  8
虚线
 48
5.0
100
AcDbLine
 10
1622.736051439742
 20
181.5142284776519
 30
0.0
 11
1622.736051439742
 21
181.5732833595324
 31
0.0
  0
LINE
  5
85EC
330
5F6E
100
AcDbEntity
  8
虚线
 48
5.0
100
AcDbLine
 10
1626.279344353131
 20
181.5732833595324
 30
0.0
 11
1626.636545641535
 21
181.5732833595324
 31
0.0
  0
LINE
  5
85ED
330
5F6E
100
AcDbEntity
  8
虚线
 48
0.3
100
AcDbLine
 10
1622.736051439742
 20
181.5732833595324
 30
0.0
 11
1626.279344353131
 21
181.5732833595324
 31
0.0
  0
LINE
  5
85EE
330
5F6E
100
AcDbEntity
  8
0
100
AcDbLine
 10
1622.273209567101
 20
181.5795179493382
 30
0.0
 11
1622.204066907075
 21
181.7178032693892
 31
0.0
  0
ARC
  5
85EF
330
5F6E
100
AcDbEntity
  8
0
100
AcDbCircle
 10
1622.151246614943
 20
181.6913931233228
 30
0.0
 40
0.05905488189
100
AcDbArc
 50
26.56505108203579
 51
90.0
  0
ARC
  5
85F0
330
5F6E
100
AcDbEntity
  8
0
100
AcDbCircle
 10
1622.378850151337
 20
181.6323382414421
 30
0.0
 40
0.1181097637799999
100
AcDbArc
 50
206.5650516505872
 51
269.9999999364671
  0
LINE
  5
85F1
330
5F6E
100
AcDbEntity
  8
0
100
AcDbLine
 10
1622.378850151337
 20
181.5142284776519
 30
0.0
 11
1622.736051439742
 21
181.5142284776519
 31
0.0
  0
LINE
  5
85F2
330
5F6E
100
AcDbEntity
  8
0
  6
Continuous
100
AcDbLine
 10
1622.736051439742
 20
181.5142284776519
 30
0.0
 11
1626.279344353131
 21
181.5142284776519
 31
0.0
  0
LINE
  5
85F3
330
5F6E
100
AcDbEntity
  8
0
100
AcDbLine
 10
1626.279344353131
 20
181.5142284776519
 30
0.0
 11
1626.636545641535
 21
181.5142284776519
 31
0.0
  0
ARC
  5
85F4
330
5F6E
100
AcDbEntity
  8
0
100
AcDbCircle
 10
1626.636545641535
 20
181.6323382414421
 30
0.0
 40
0.1181097637799999
100
AcDbArc
 50
270.0000000426862
 51
333.4349477714644
  0
LINE
  5
85F5
330
5F6E
100
AcDbEntity
  8
0
100
AcDbLine
 10
1626.742186225772
 20
181.5795179493382
 30
0.0
 11
1626.811328885797
 21
181.7178032693892
 31
0.0
  0
ARC
  5
85F6
330
5F6E
100
AcDbEntity
  8
0
100
AcDbCircle
 10
1626.86414917793
 20
181.6913931233228
 30
0.0
 40
0.05905488189
100
AcDbArc
 50
90.0
 51
153.4349486719421
  0
LINE
  5
85F7
330
5F6E
100
AcDbEntity
  8
0
100
AcDbLine
 10
1617.291803432891
 20
181.9075642676211
 30
0.0
 11
1622.151246614913
 21
181.7504480052033
 31
0.0
  0
LINE
  5
85F8
330
5F6E
100
AcDbEntity
  8
虚线
 48
0.3
100
AcDbLine
 10
1617.292620420554
 20
181.9666134979857
 30
0.0
 11
1622.1512473507
 21
181.8095028870841
 31
0.0
  0
LINE
  5
85F9
330
5F6E
100
AcDbEntity
  8
0
100
AcDbLine
 10
1617.198622802108
 20
191.8289632028289
 30
0.0
 11
1617.198622802123
 21
182.8880540846941
 31
0.0
  0
LINE
  5
85FA
330
5F6E
100
AcDbEntity
  8
0
100
AcDbLine
 10
1617.198622802123
 20
182.8880540846941
 30
0.0
 11
1617.198622802123
 21
182.0020430361929
 31
0.0
  0
ARC
  5
85FB
330
5F6E
100
AcDbEntity
  8
0
100
AcDbCircle
 10
1617.293110613149
 20
182.0020430361929
 30
0.0
 40
0.094487811024
100
AcDbArc
 50
180.0
 51
269.2073231410275
  0
ARC
  5
85FC
330
5F6E
100
AcDbEntity
  8
虚线
 48
0.3
100
AcDbCircle
 10
1617.293110613149
 20
182.0020430361929
 30
0.0
 40
0.035432929134
100
AcDbArc
 50
180.0
 51
269.2073231410275
  0
LINE
  5
85FD
330
5F6E
100
AcDbEntity
  8
虚线
 48
0.3
100
AcDbLine
 10
1617.257677684003
 20
191.8880180847095
 30
0.0
 11
1617.257677684003
 21
182.8880540846941
 31
0.0
  0
LINE
  5
85FE
330
5F6E
100
AcDbEntity
  8
虚线
 48
0.3
100
AcDbLine
 10
1617.257677684003
 20
182.8880540846941
 30
0.0
 11
1617.257677684003
 21
182.0020430361929
 31
0.0
  0
DIMENSION
  5
85FF
330
5F6E
100
AcDbEntity
  8
标注
100
AcDbDimension
  2
*D7
 10
1598.152975001178
 20
181.8878272984854
 30
0.0
 11
1598.152975001178
 21
186.8879226916123
 31
0.0
 70
    32
 71
     5
 42
10.00019078625334
  3
副本Standard$0
100
AcDbAlignedDimension
 13
1600.419063936298
 23
191.8880180847387
 33
0.0
 14
1600.441569798973
 24
181.8878272984853
 34
0.0
 50
90.0
100
AcDbRotatedDimension
1001
ACAD
1000
DSTYLE
1002
{
1070
     3
1000
"
1070
    41
1040
0.65
1070
    42
1040
0.88
1070
    43
1040
0.015
1070
    44
1040
0.32
1070
    79
1070
     0
1070
   140
1040
0.65
1070
   147
1040
0.3
1070
   171
1070
     1
1070
   179
1070
     0
1070
   271
1070
     3
1070
   272
1070
     3
1070
   273
1070
     2
1070
   274
1070
     1
1070
   276
1070
     2
1070
   277
1070
     5
1070
   278
1070
    46
1070
   279
1070
     2
1070
   284
1070
     8
1070
   285
1070
     8
1070
   286
1070
     8
1070
   345
1005
5F5E
1070
   346
1005
5F5E
1070
   347
1005
5F5E
1002
}
  0
LINE
  5
8605
330
5F6E
100
AcDbEntity
  8
中心线
  6
Continuous
 62
     1
100
AcDbLine
 10
1601.719323643536
 20
131.5295881921267
 30
0.0
 11
1601.719323643536
 21
112.8296631111266
 31
0.0
  0
LINE
  5
8606
330
5F6E
100
AcDbEntity
  8
中心线
  6
Continuous
 62
     1
100
AcDbLine
 10
1631.876880178306
 20
131.5295881921267
 30
0.0
 11
1601.719323643536
 21
131.5295881921267
 31
0.0
  0
LINE
  5
8607
102
{ACAD_REACTORS
330
860E
102
}
330
5F6E
100
AcDbEntity
  8
中心线
  6
Continuous
 62
     1
100
AcDbLine
 10
1631.876880178306
 20
112.8296631111266
 30
0.0
 11
1631.876880178306
 21
131.5295881921267
 31
0.0
  0
LINE
  5
8608
102
{ACAD_REACTORS
330
860B
102
}
330
5F6E
100
AcDbEntity
  8
中心线
  6
Continuous
 62
     1
100
AcDbLine
 10
1601.719323643536
 20
112.8296631111266
 30
0.0
 11
1631.876880178306
 21
112.8296631111266
 31
0.0
  0
DIMENSION
  5
8609
102
{ACAD_XDICTIONARY
360
860A
102
}
102
{ACAD_REACTORS
330
860B
102
}
330
5F6E
100
AcDbEntity
  8
标注线
 48
5.0
100
AcDbDimension
  2
*D8
 10
1631.876880178306
 20
109.6825630487948
 30
0.0
 11
1616.798101910921
 21
109.6825630487948
 31
0.0
 70
    32
 71
     5
 42
30.15755653476936
  3
副本STANDARD
100
AcDbAlignedDimension
 13
1601.719323643536
 23
112.8296631111266
 33
0.0
 14
1631.876880178306
 24
112.8296631111266
 34
0.0
100
AcDbRotatedDimension
  0
DIMENSION
  5
860C
102
{ACAD_XDICTIONARY
360
860D
102
}
102
{ACAD_REACTORS
330
860E
102
}
330
5F6E
100
AcDbEntity
  8
标注线
 48
5.0
100
AcDbDimension
  2
*D6
 10
1635.146047423011
 20
112.8296631111266
 30
0.0
 11
1635.146047423011
 21
122.1796256516269
 31
0.0
 70
    32
 71
     5
 42
18.69992508100004
  3
副本STANDARD
100
AcDbAlignedDimension
 13
1631.876880178306
 23
131.5295881921267
 33
0.0
 14
1631.876880178306
 24
112.8296631111266
 34
0.0
 50
90.0
100
AcDbRotatedDimension
  0
TEXT
  5
882D
330
5F6E
100
AcDbEntity
  8
标注
100
AcDbText
 10
1619.210164658763
 20
105.0194635755095
 30
0.0
 40
0.7874000000000001
  1
 CUTOUT
100
AcDbText
  0
LINE
  5
882E
330
5F6E
100
AcDbEntity
  8
中心线
  6
Continuous
 62
     1
100
AcDbLine
 10
1611.544773909007
 20
105.2726645364114
 30
0.0
 11
1617.761566479481
 21
105.2726645364114
 31
0.0
  0
TEXT
  5
882F
330
5F6E
100
AcDbEntity
  8
标注
100
AcDbText
 10
1612.097782091739
 20
141.8800315604938
 30
0.0
 40
0.7874000000000001
  1
OVERHEAD VIEW
100
AcDbText
  0
TEXT
  5
8830
330
5F6E
100
AcDbEntity
  8
标注
100
AcDbText
 10
1613.51712840589
 20
178.4617427074714
 30
0.0
 40
0.7874000000000001
  1
FRONT VIEW
100
AcDbText
  0
LINE
  5
8905
330
5F6E
100
AcDbEntity
  8
标注
100
AcDbLine
 10
1632.444723234853
 20
182.8880540846941
 30
0.0
 11
1632.444723234853
 21
182.9471089665748
 31
0.0
  0
LINE
  5
8906
330
5F6E
100
AcDbEntity
  8
标注
100
AcDbLine
 10
1601.070636133151
 20
182.8880540846941
 30
0.0
 11
1601.070636133151
 21
182.9471089665748
 31
0.0
  0
LINE
  5
896D
330
5F6E
100
AcDbEntity
  8
标注
100
AcDbLine
 10
1601.068667637087
 20
156.5742190579522
 30
0.0
 11
1600.37969401504
 21
156.5742190579522
 31
0.0
  0
LINE
  5
896F
330
5F6E
100
AcDbEntity
  8
标注
100
AcDbLine
 10
1632.446691730917
 20
156.5742190579522
 30
0.0
 11
1633.135665352964
 21
156.5742190579522
 31
0.0
  0
LINE
  5
898C
330
5F6E
100
AcDbEntity
  8
虚线
 48
0.3
100
AcDbLine
 10
1602.263181734163
 20
167.6440490047276
 30
0.0
 11
1602.263181734163
 21
152.4314810047323
 31
0.0
  0
ENDSEC
  0
SECTION
  2
OBJECTS
  0
DICTIONARY
  5
5F06
330
0
100
AcDbDictionary
281
     1
  3
ACAD_2007HEADERVARS_RT
350
89BE
  3
ACAD_COLOR
350
5F64
  3
ACAD_GROUP
350
5F07
  3
ACAD_LAYOUT
350
5F63
  3
ACAD_MATERIAL
350
5F0A
  3
ACAD_MLEADERSTYLE
350
5F67
  3
ACAD_MLINESTYLE
350
5F60
  3
ACAD_PLOTSETTINGS
350
5F62
  3
ACAD_PLOTSTYLENAME
350
5F08
  3
ACAD_SCALELIST
350
5F34
  3
ACAD_TABLESTYLE
350
5F65
  3
ACAD_VISUALSTYLE
350
5F23
  3
ACDB_RECOMPOSE_DATA
350
6F70
  3
AcDbVariableDictionary
350
6102
  3
lxx_dict
350
60F2
  0
DICTIONARY
  5
61B7
330
5EFC
100
AcDbDictionary
280
     1
281
     1
  3
ACAD_LAYERFILTERS
360
8980
  3
ACAD_LAYERSTATES
360
61B8
  3
ACLYDICTIONARY
360
897F
  0
DICTIONARY
  5
60F4
330
5F56
100
AcDbDictionary
280
     1
281
     1
  3
ADSK_XREC_LAYER_RECONCILED
360
60F5
  0
DICTIONARY
  5
60F6
330
5F72
100
AcDbDictionary
280
     1
281
     1
  3
ADSK_XREC_LAYER_RECONCILED
360
60F7
  0
DICTIONARY
  5
60F8
330
5F7D
100
AcDbDictionary
280
     1
281
     1
  3
ADSK_XREC_LAYER_RECONCILED
360
60F9
  0
DICTIONARY
  5
60FA
330
5F7E
100
AcDbDictionary
280
     1
281
     1
  3
ADSK_XREC_LAYER_RECONCILED
360
60FB
  0
DICTIONARY
  5
60FC
330
5F80
100
AcDbDictionary
280
     1
281
     1
  3
ADSK_XREC_LAYER_RECONCILED
360
60FD
  0
DICTIONARY
  5
654F
330
5F6E
100
AcDbDictionary
280
     1
281
     1
  3
ACAD_SORTENTS
360
6550
  0
DICTIONARY
  5
8573
330
8572
100
AcDbDictionary
280
     1
281
     1
  3
ACAD_DIMASSOC
360
8574
  0
DICTIONARY
  5
860A
330
8609
100
AcDbDictionary
280
     1
281
     1
  3
ACAD_DIMASSOC
360
860B
  0
DICTIONARY
  5
860D
330
860C
100
AcDbDictionary
280
     1
281
     1
  3
ACAD_DIMASSOC
360
860E
  0
DICTIONARY
  5
89BE
102
{ACAD_REACTORS
330
5F06
102
}
330
5F06
100
AcDbDictionary
281
     1
  3
DIMFXL
350
89BF
  3
DIMJOGANG
350
89C0
  3
DIMLTEX1
350
89C2
  3
DIMLTEX2
350
89C3
  3
DIMLTYPE
350
89C1
  0
DICTIONARY
  5
5F64
102
{ACAD_REACTORS
330
5F06
102
}
330
5F06
100
AcDbDictionary
281
     1
  0
DICTIONARY
  5
5F07
102
{ACAD_REACTORS
330
5F06
102
}
330
5F06
100
AcDbDictionary
281
     1
  0
DICTIONARY
  5
5F63
102
{ACAD_REACTORS
330
5F06
102
}
330
5F06
100
AcDbDictionary
281
     1
  3
Model
350
5F71
  3
布局1
350
5F6D
  0
DICTIONARY
  5
5F0A
102
{ACAD_REACTORS
330
5F06
102
}
330
5F06
100
AcDbDictionary
281
     1
  3
ByBlock
350
5F13
  3
ByLayer
350
5F0B
  3
Global
350
5F1B
  0
DICTIONARY
  5
5F67
102
{ACAD_REACTORS
330
5F06
102
}
330
5F06
100
AcDbDictionary
281
     1
  3
Standard
350
5F68
  0
DICTIONARY
  5
5F60
102
{ACAD_REACTORS
330
5F06
102
}
330
5F06
100
AcDbDictionary
281
     1
  3
Standard
350
5F61
  0
DICTIONARY
  5
5F62
102
{ACAD_REACTORS
330
5F06
102
}
330
5F06
100
AcDbDictionary
281
     1
  0
ACDBDICTIONARYWDFLT
  5
5F08
102
{ACAD_REACTORS
330
5F06
102
}
330
5F06
100
AcDbDictionary
281
     1
  3
Normal
350
5F09
100
AcDbDictionaryWithDefault
340
5F09
  0
DICTIONARY
  5
5F34
102
{ACAD_REACTORS
330
5F06
102
}
330
5F06
100
AcDbDictionary
281
     1
  3
A0
350
5F35
  3
A1
350
5F36
  3
A2
350
5F37
  3
A3
350
5F38
  3
A4
350
5F39
  3
A5
350
5F3A
  3
A6
350
5F3B
  3
A7
350
5F3C
  3
A8
350
5F3D
  3
A9
350
5F3E
  3
B0
350
5F3F
  3
B1
350
5F40
  3
B2
350
5F41
  3
B3
350
5F42
  3
B4
350
5F43
  3
B5
350
5F44
  3
B6
350
5F45
  3
B7
350
5F46
  3
B8
350
5F47
  3
B9
350
5F48
  3
C0
350
5F49
  3
C1
350
5F4A
  3
C2
350
5F4B
  3
C3
350
5F4C
  3
C4
350
5F4D
  3
C5
350
5F4E
  3
C6
350
5F4F
  3
C7
350
5F50
  3
C8
350
5F51
  3
C9
350
5F52
  3
D0
350
5F53
  3
D1
350
5F54
  3
D2
350
5F55
  0
DICTIONARY
  5
5F65
102
{ACAD_REACTORS
330
5F06
102
}
330
5F06
100
AcDbDictionary
281
     1
  3
Standard
350
5F66
  0
DICTIONARY
  5
5F23
102
{ACAD_REACTORS
330
5F06
102
}
330
5F06
100
AcDbDictionary
281
     1
  3
2dWireframe
350
5F29
  3
3D Hidden
350
5F2B
  3
3dWireframe
350
5F2A
  3
Basic
350
5F28
  3
Brighten
350
5F2F
  3
ColorChange
350
5F33
  3
Conceptual
350
5F2C
  3
Dim
350
5F2E
  3
Facepattern
350
5F32
  3
Flat
350
5F24
  3
FlatWithEdges
350
5F25
  3
Gouraud
350
5F26
  3
GouraudWithEdges
350
5F27
  3
Linepattern
350
5F31
  3
Realistic
350
5F2D
  3
Thicken
350
5F30
  0
XRECORD
  5
6F70
102
{ACAD_REACTORS
330
5F06
102
}
330
5F06
100
AcDbXrecord
280
     1
 90
        1
330
5F66
  0
DICTIONARY
  5
6102
102
{ACAD_REACTORS
330
5F06
102
}
330
5F06
100
AcDbDictionary
281
     1
  3
CANNOSCALE
350
6105
  3
CMLEADERSTYLE
350
6104
  3
CTABLESTYLE
350
6103
  3
DIMASSOC
350
6108
  3
INDEXCTL
350
6107
  3
SORTENTS
350
6106
  0
DICTIONARY
  5
60F2
102
{ACAD_REACTORS
330
5F06
102
}
330
5F06
100
AcDbDictionary
281
     1
  3
lxx_dimth
350
60F3
  0
DICTIONARY
  5
8980
102
{ACAD_REACTORS
330
61B7
102
}
330
61B7
100
AcDbDictionary
281
     1
  0
DICTIONARY
  5
61B8
102
{ACAD_REACTORS
330
61B7
102
}
330
61B7
100
AcDbDictionary
281
     1
  0
DICTIONARY
  5
897F
102
{ACAD_REACTORS
330
61B7
102
}
330
61B7
100
AcDbDictionary
281
     1
1001
ACAD
1000
<All
  0
XRECORD
  5
60F5
102
{ACAD_REACTORS
330
60F4
102
}
330
60F4
100
AcDbXrecord
280
     1
290
     1
  0
XRECORD
  5
60F7
102
{ACAD_REACTORS
330
60F6
102
}
330
60F6
100
AcDbXrecord
280
     1
290
     1
  0
XRECORD
  5
60F9
102
{ACAD_REACTORS
330
60F8
102
}
330
60F8
100
AcDbXrecord
280
     1
290
     1
  0
XRECORD
  5
60FB
102
{ACAD_REACTORS
330
60FA
102
}
330
60FA
100
AcDbXrecord
280
     1
290
     1
  0
XRECORD
  5
60FD
102
{ACAD_REACTORS
330
60FC
102
}
330
60FC
100
AcDbXrecord
280
     1
290
     1
  0
SORTENTSTABLE
  5
6550
102
{ACAD_REACTORS
330
654F
102
}
330
654F
100
AcDbSortentsTable
330
5F6E
331
858D
  5
8593
331
85DC
  5
85E2
331
85E4
  5
85EA
331
859D
  5
85A3
331
85EC
  5
85F2
331
85A5
  5
85AB
331
85AD
  5
85B3
331
8597
  5
859D
331
85FF
  5
8609
331
8567
  5
856A
331
855E
  5
855F
331
85B5
  5
85BB
331
85F4
  5
85FA
331
856E
  5
8572
331
85BD
  5
85C3
331
857E
  5
8584
331
85C5
  5
85CB
331
85CD
  5
85D4
331
8586
  5
858D
331
8608
  5
8830
331
8570
  5
8577
331
85D0
  5
85D7
331
858E
  5
8594
331
85DD
  5
85E3
331
859E
  5
85A4
331
85E5
  5
85EB
331
85A6
  5
85AC
331
85ED
  5
85F3
331
85AE
  5
85B4
331
8590
  5
8596
331
85F8
  5
85FE
331
8560
  5
8562
331
85F5
  5
85FB
331
855F
  5
8561
331
85B6
  5
85BC
331
85BE
  5
85C4
331
8605
  5
882D
331
856F
  5
8576
331
857F
  5
8585
331
882D
  5
88EF
331
8587
  5
858E
331
85CE
  5
85D5
331
8609
  5
88ED
331
8551
  5
8551
331
8571
  5
8579
331
85D1
  5
85D8
331
858F
  5
8595
331
85DE
  5
85E4
331
85E6
  5
85EC
331
859F
  5
85A5
331
85A7
  5
85AD
331
85EE
  5
85F4
331
85AF
  5
85B5
331
8591
  5
8597
331
85F9
  5
85FF
331
8561
  5
8563
331
8558
  5
8559
331
8568
  5
856E
331
85B7
  5
85BD
331
85F6
  5
85FC
331
8606
  5
882E
331
8578
  5
857E
331
85BF
  5
85C5
331
882E
  5
88F0
331
8580
  5
8586
331
85C7
  5
85CD
331
85CF
  5
85D6
331
8552
  5
8552
331
8572
  5
857A
331
85D2
  5
85D9
331
8588
  5
858F
331
8598
  5
859E
331
85DF
  5
85E5
331
85A0
  5
85A6
331
85E7
  5
85ED
331
85A8
  5
85AE
331
85EF
  5
85F5
331
8592
  5
8598
331
85FA
  5
8604
331
8562
  5
8565
331
8559
  5
855A
331
85B0
  5
85B6
331
85B8
  5
85BE
331
85F7
  5
85FD
331
8569
  5
856F
331
85C0
  5
85C6
331
8607
  5
882F
331
8579
  5
857F
331
8581
  5
8587
331
85C8
  5
85CE
331
882F
  5
88F1
331
8553
  5
8553
331
8589
  5
8590
331
85D8
  5
85DE
331
8599
  5
859F
331
85E0
  5
85E6
331
85E8
  5
85EE
331
85A9
  5
85AF
331
8593
  5
8599
331
85FB
  5
8605
331
8563
  5
8566
331
85B1
  5
85B7
331
85F0
  5
85F6
331
855A
  5
855C
331
856A
  5
8570
331
85B9
  5
85BF
331
857A
  5
8580
331
85C1
  5
85C7
331
85C9
  5
85CF
331
8830
  5
88F2
331
8582
  5
8588
331
860C
  5
88EE
331
8554
  5
8554
331
85D4
  5
85DA
331
85D9
  5
85DF
331
858A
  5
8591
331
859A
  5
85A0
331
85E1
  5
85E7
331
85A2
  5
85A8
331
85E9
  5
85EF
331
85AA
  5
85B0
331
896D
  5
896F
331
85FC
  5
8606
331
8564
  5
8567
331
85F1
  5
85F7
331
85B2
  5
85B8
331
85BA
  5
85C0
331
85C2
  5
85C8
331
857B
  5
8581
331
8583
  5
8589
331
85CA
  5
85D0
331
8555
  5
8556
331
8575
  5
857B
331
85D5
  5
85DB
331
858B
  5
8592
331
85DA
  5
85E0
331
85E2
  5
85E8
331
859B
  5
85A1
331
85EA
  5
85F0
331
85A3
  5
85A9
331
85AB
  5
85B1
331
85FD
  5
8607
331
8565
  5
8568
331
855C
  5
855E
331
85B3
  5
85B9
331
85F2
  5
85F8
331
856C
  5
8571
331
85BB
  5
85C1
331
857C
  5
8582
331
85C3
  5
85C9
331
85CB
  5
85D1
331
8584
  5
858A
331
8905
  5
8905
331
8556
  5
8557
331
8576
  5
857C
331
85D6
  5
85DC
331
85DB
  5
85E1
331
859C
  5
85A2
331
85E3
  5
85E9
331
85A4
  5
85AA
331
85EB
  5
85F1
331
85AC
  5
85B2
331
896F
  5
896D
331
8596
  5
859C
331
85FE
  5
8608
331
8566
  5
8569
331
85F3
  5
85F9
331
85B4
  5
85BA
331
85BC
  5
85C2
331
857D
  5
8583
331
85C4
  5
85CA
331
8585
  5
858B
331
85CC
  5
85D2
331
8906
  5
8906
331
8557
  5
8558
331
8577
  5
857D
331
85D7
  5
85DD
  0
DIMASSOC
  5
8574
102
{ACAD_REACTORS
330
8573
102
}
330
8573
100
AcDbDimAssoc
330
8572
 90
        3
 70
     0
 71
     0
  1
AcDbOsnapPointRef
 72
     6
331
8568
 73
     2
 91
        0
 40
0.0
 10
0.0
 20
0.0
 30
0.0
332
8563
 74
     2
 92
        0
 75
     0
  1
AcDbOsnapPointRef
 72
     6
331
8570
 73
     2
 91
        0
 40
0.0
 10
0.0
 20
0.0
 30
0.0
332
8568
 74
     2
 92
        0
 75
     0
  0
DIMASSOC
  5
860B
102
{ACAD_REACTORS
330
860A
102
}
330
860A
100
AcDbDimAssoc
330
8609
 90
        3
 70
     0
 71
     0
  1
AcDbOsnapPointRef
 72
    13
331
8608
 73
     2
 91
        0
 40
0.0
 10
0.0
 20
0.0
 30
2.000000000000000E+50
 75
     0
  1
AcDbOsnapPointRef
 72
     1
331
8608
 73
     2
 91
        0
 40
1.0
 10
0.0
 20
0.0
 30
2.000000000000000E+50
 75
     0
  0
DIMASSOC
  5
860E
102
{ACAD_REACTORS
330
860D
102
}
330
860D
100
AcDbDimAssoc
330
860C
 90
        1
 70
     0
 71
     0
  1
AcDbOsnapPointRef
 72
     1
331
8607
 73
     2
 91
        0
 40
0.9999999999999998
 10
0.0
 20
0.0
 30
2.000000000000000E+50
 75
     0
  0
XRECORD
  5
89BF
102
{ACAD_REACTORS
330
89BE
102
}
330
89BE
100
AcDbXrecord
280
     1
 40
1.25
  0
XRECORD
  5
89C0
102
{ACAD_REACTORS
330
89BE
102
}
330
89BE
100
AcDbXrecord
280
     1
 40
1.570796326794896
  0
XRECORD
  5
89C2
102
{ACAD_REACTORS
330
89BE
102
}
330
89BE
100
AcDbXrecord
280
     1
340
5F5E
  0
XRECORD
  5
89C3
102
{ACAD_REACTORS
330
89BE
102
}
330
89BE
100
AcDbXrecord
280
     1
340
5F5E
  0
XRECORD
  5
89C1
102
{ACAD_REACTORS
330
89BE
102
}
330
89BE
100
AcDbXrecord
280
     1
340
5F5E
  0
LAYOUT
  5
5F71
102
{ACAD_REACTORS
330
5F63
102
}
330
5F63
100
AcDbPlotSettings
  1

  2
\\192.168.1.64\Canon LBP2900
  4
A4
  6

 40
5.873749732971191
 41
6.805061340332031
 42
5.873748779296875
 43
4.857757568359375
 44
209.9733276367186
 45
296.9259948730469
 46
0.0
 47
0.0
 48
0.0
 49
0.0
140
0.0
141
0.0
142
1.0
143
15.879357507287
 70
 11952
 72
     0
 73
     1
 74
     0
  7

 75
     0
147
0.0629748401055334
 76
     0
 77
     2
 78
   300
148
-27226.80690415248
149
-2266.514499453142
100
AcDbLayout
  1
Model
 70
     1
 71
     0
 10
0.0
 20
0.0
 11
12.0
 21
9.0
 12
0.0
 22
0.0
 32
0.0
 14
0.0
 24
0.0
 34
0.0
 15
0.0
 25
0.0
 35
0.0
146
0.0
 13
0.0
 23
0.0
 33
0.0
 16
1.0
 26
0.0
 36
0.0
 17
0.0
 27
1.0
 37
0.0
 76
     0
330
5F6E
331
5F73
1001
ACAD_PSEXT
1000
\\192.168.1.64\Canon LBP2900
1000
Canon LBP2900
1000
\\192.168.1.64
1000

1070
     0
  0
LAYOUT
  5
5F6D
102
{ACAD_REACTORS
330
5F63
102
}
330
5F63
100
AcDbPlotSettings
  1

  2
\\192.168.1.64\Canon LBP2900
  4

  6

 40
0.0
 41
0.0
 42
0.0
 43
0.0
 44
0.0
 45
0.0
 46
0.0
 47
0.0
 48
0.0
 49
0.0
140
0.0
141
0.0
142
1.0
143
1.0
 70
   688
 72
     0
 73
     0
 74
     5
  7

 75
    16
147
1.0
 76
     0
 77
     2
 78
   300
148
0.0
149
0.0
100
AcDbLayout
  1
布局1
 70
     1
 71
     1
 10
0.0
 20
0.0
 11
12.0
 21
9.0
 12
0.0
 22
0.0
 32
0.0
 14
1.000000000000000E+20
 24
1.000000000000000E+20
 34
1.000000000000000E+20
 15
-1.000000000000000E+20
 25
-1.000000000000000E+20
 35
-1.000000000000000E+20
146
0.0
 13
0.0
 23
0.0
 33
0.0
 16
1.0
 26
0.0
 36
0.0
 17
0.0
 27
1.0
 37
0.0
 76
     0
330
5F6A
  0
MATERIAL
  5
5F13
102
{ACAD_XDICTIONARY
360
5F14
102
}
102
{ACAD_REACTORS
330
5F0A
102
}
330
5F0A
100
AcDbMaterial
  1
ByBlock
 72
     0
 43
0.0208333333333333
 43
0.0
 43
0.0
 43
0.0
 43
0.0
 43
0.0208333333333333
 43
0.0
 43
0.0
 43
0.0
 43
0.0
 43
1.0
 43
0.0
 43
0.0
 43
0.0
 43
0.0
 43
1.0
 77
     0
 47
0.0208333333333333
 47
0.0
 47
0.0
 47
0.0
 47
0.0
 47
0.0208333333333333
 47
0.0
 47
0.0
 47
0.0
 47
0.0
 47
1.0
 47
0.0
 47
0.0
 47
0.0
 47
0.0
 47
1.0
171
     0
 49
0.0208333333333333
 49
0.0
 49
0.0
 49
0.0
 49
0.0
 49
0.0208333333333333
 49
0.0
 49
0.0
 49
0.0
 49
0.0
 49
1.0
 49
0.0
 49
0.0
 49
0.0
 49
0.0
 49
1.0
175
     0
142
0.0208333333333333
142
0.0
142
0.0
142
0.0
142
0.0
142
0.0208333333333333
142
0.0
142
0.0
142
0.0
142
0.0
142
1.0
142
0.0
142
0.0
142
0.0
142
0.0
142
1.0
179
     0
144
0.0208333333333333
144
0.0
144
0.0
144
0.0
144
0.0
144
0.0208333333333333
144
0.0
144
0.0
144
0.0
144
0.0
144
1.0
144
0.0
144
0.0
144
0.0
144
0.0
144
1.0
147
0.0208333333333333
147
0.0
147
0.0
147
0.0
147
0.0
147
0.0208333333333333
147
0.0
147
0.0
147
0.0
147
0.0
147
1.0
147
0.0
147
0.0
147
0.0
147
0.0
147
1.0
  0
MATERIAL
  5
5F0B
102
{ACAD_XDICTIONARY
360
5F0C
102
}
102
{ACAD_REACTORS
330
5F0A
102
}
330
5F0A
100
AcDbMaterial
  1
ByLayer
 72
     0
 43
0.0208333333333333
 43
0.0
 43
0.0
 43
0.0
 43
0.0
 43
0.0208333333333333
 43
0.0
 43
0.0
 43
0.0
 43
0.0
 43
1.0
 43
0.0
 43
0.0
 43
0.0
 43
0.0
 43
1.0
 77
     0
 47
0.0208333333333333
 47
0.0
 47
0.0
 47
0.0
 47
0.0
 47
0.0208333333333333
 47
0.0
 47
0.0
 47
0.0
 47
0.0
 47
1.0
 47
0.0
 47
0.0
 47
0.0
 47
0.0
 47
1.0
171
     0
 49
0.0208333333333333
 49
0.0
 49
0.0
 49
0.0
 49
0.0
 49
0.0208333333333333
 49
0.0
 49
0.0
 49
0.0
 49
0.0
 49
1.0
 49
0.0
 49
0.0
 49
0.0
 49
0.0
 49
1.0
175
     0
142
0.0208333333333333
142
0.0
142
0.0
142
0.0
142
0.0
142
0.0208333333333333
142
0.0
142
0.0
142
0.0
142
0.0
142
1.0
142
0.0
142
0.0
142
0.0
142
0.0
142
1.0
179
     0
144
0.0208333333333333
144
0.0
144
0.0
144
0.0
144
0.0
144
0.0208333333333333
144
0.0
144
0.0
144
0.0
144
0.0
144
1.0
144
0.0
144
0.0
144
0.0
144
0.0
144
1.0
147
0.0208333333333333
147
0.0
147
0.0
147
0.0
147
0.0
147
0.0208333333333333
147
0.0
147
0.0
147
0.0
147
0.0
147
1.0
147
0.0
147
0.0
147
0.0
147
0.0
147
1.0
  0
MATERIAL
  5
5F1B
102
{ACAD_XDICTIONARY
360
5F1C
102
}
102
{ACAD_REACTORS
330
5F0A
102
}
330
5F0A
100
AcDbMaterial
  1
Global
 72
     0
 43
0.0208333333333333
 43
0.0
 43
0.0
 43
0.0
 43
0.0
 43
0.0208333333333333
 43
0.0
 43
0.0
 43
0.0
 43
0.0
 43
1.0
 43
0.0
 43
0.0
 43
0.0
 43
0.0
 43
1.0
 77
     0
 47
0.0208333333333333
 47
0.0
 47
0.0
 47
0.0
 47
0.0
 47
0.0208333333333333
 47
0.0
 47
0.0
 47
0.0
 47
0.0
 47
1.0
 47
0.0
 47
0.0
 47
0.0
 47
0.0
 47
1.0
171
     0
 49
0.0208333333333333
 49
0.0
 49
0.0
 49
0.0
 49
0.0
 49
0.0208333333333333
 49
0.0
 49
0.0
 49
0.0
 49
0.0
 49
1.0
 49
0.0
 49
0.0
 49
0.0
 49
0.0
 49
1.0
175
     0
142
0.0208333333333333
142
0.0
142
0.0
142
0.0
142
0.0
142
0.0208333333333333
142
0.0
142
0.0
142
0.0
142
0.0
142
1.0
142
0.0
142
0.0
142
0.0
142
0.0
142
1.0
179
     0
144
0.0208333333333333
144
0.0
144
0.0
144
0.0
144
0.0
144
0.0208333333333333
144
0.0
144
0.0
144
0.0
144
0.0
144
1.0
144
0.0
144
0.0
144
0.0
144
0.0
144
1.0
147
0.0208333333333333
147
0.0
147
0.0
147
0.0
147
0.0
147
0.0208333333333333
147
0.0
147
0.0
147
0.0
147
0.0
147
1.0
147
0.0
147
0.0
147
0.0
147
0.0
147
1.0
  0
ACAD_PROXY_OBJECT
  5
5F68
102
{ACAD_REACTORS
330
5F67
102
}
330
5F67
100
AcDbProxyObject
 90
      499
 91
      505
 95
  1310743
 70
     1
100
AcDbMLeaderStyle
170
     2
171
     1
172
     0
 90
        2
 40
0.0
 41
0.0
173
     1
 91
-1056964608
340
5F5C
 92
       -2
290
     1
 42
0.09
291
     1
 43
0.36
  3
Standard
 44
0.18
300

342
5F57
174
     1
178
     6
175
     1
176
     0
 93
-1056964608
 45
0.18
292
     0
297
     0
 46
0.18
 94
-1056964608
 47
1.0
 49
1.0
140
1.0
293
     1
141
0.0
294
     1
177
     0
142
1.0
295
     0
296
     0
143
0.125
1001
ACAD_MLEADERVER
1070
     2
  0
MLINESTYLE
  5
5F61
102
{ACAD_REACTORS
330
5F60
102
}
330
5F60
100
AcDbMlineStyle
  2
STANDARD
 70
     0
  3

 62
   256
 51
90.0
 52
90.0
 71
     2
 49
0.5
 62
   256
  6
BYLAYER
 49
-0.5
 62
   256
  6
BYLAYER
  0
ACDBPLACEHOLDER
  5
5F09
102
{ACAD_REACTORS
330
5F08
102
}
330
5F08
  0
ACAD_PROXY_OBJECT
  5
5F35
102
{ACAD_REACTORS
330
5F34
102
}
330
5F34
100
AcDbProxyObject
 90
      499
 91
      503
 95
  1310743
 70
     1
100
AcDbScale
 70
     0
300
1:1
140
1.0
141
1.0
290
     1
  0
ACAD_PROXY_OBJECT
  5
5F36
102
{ACAD_REACTORS
330
5F34
102
}
330
5F34
100
AcDbProxyObject
 90
      499
 91
      503
 95
  1310743
 70
     1
100
AcDbScale
 70
     0
300
1:2
140
1.0
141
2.0
290
     0
  0
ACAD_PROXY_OBJECT
  5
5F37
102
{ACAD_REACTORS
330
5F34
102
}
330
5F34
100
AcDbProxyObject
 90
      499
 91
      503
 95
  1310743
 70
     1
100
AcDbScale
 70
     0
300
1:4
140
1.0
141
4.0
290
     0
  0
ACAD_PROXY_OBJECT
  5
5F38
102
{ACAD_REACTORS
330
5F34
102
}
330
5F34
100
AcDbProxyObject
 90
      499
 91
      503
 95
  1310743
 70
     1
100
AcDbScale
 70
     0
300
1:5
140
1.0
141
5.0
290
     0
  0
ACAD_PROXY_OBJECT
  5
5F39
102
{ACAD_REACTORS
330
5F34
102
}
330
5F34
100
AcDbProxyObject
 90
      499
 91
      503
 95
  1310743
 70
     1
100
AcDbScale
 70
     0
300
1:8
140
1.0
141
8.0
290
     0
  0
ACAD_PROXY_OBJECT
  5
5F3A
102
{ACAD_REACTORS
330
5F34
102
}
330
5F34
100
AcDbProxyObject
 90
      499
 91
      503
 95
  1310743
 70
     1
100
AcDbScale
 70
     0
300
1:10
140
1.0
141
10.0
290
     0
  0
ACAD_PROXY_OBJECT
  5
5F3B
102
{ACAD_REACTORS
330
5F34
102
}
330
5F34
100
AcDbProxyObject
 90
      499
 91
      503
 95
  1310743
 70
     1
100
AcDbScale
 70
     0
300
1:16
140
1.0
141
16.0
290
     0
  0
ACAD_PROXY_OBJECT
  5
5F3C
102
{ACAD_REACTORS
330
5F34
102
}
330
5F34
100
AcDbProxyObject
 90
      499
 91
      503
 95
  1310743
 70
     1
100
AcDbScale
 70
     0
300
1:20
140
1.0
141
20.0
290
     0
  0
ACAD_PROXY_OBJECT
  5
5F3D
102
{ACAD_REACTORS
330
5F34
102
}
330
5F34
100
AcDbProxyObject
 90
      499
 91
      503
 95
  1310743
 70
     1
100
AcDbScale
 70
     0
300
1:30
140
1.0
141
30.0
290
     0
  0
ACAD_PROXY_OBJECT
  5
5F3E
102
{ACAD_REACTORS
330
5F34
102
}
330
5F34
100
AcDbProxyObject
 90
      499
 91
      503
 95
  1310743
 70
     1
100
AcDbScale
 70
     0
300
1:40
140
1.0
141
40.0
290
     0
  0
ACAD_PROXY_OBJECT
  5
5F3F
102
{ACAD_REACTORS
330
5F34
102
}
330
5F34
100
AcDbProxyObject
 90
      499
 91
      503
 95
  1310743
 70
     1
100
AcDbScale
 70
     0
300
1:50
140
1.0
141
50.0
290
     0
  0
ACAD_PROXY_OBJECT
  5
5F40
102
{ACAD_REACTORS
330
5F34
102
}
330
5F34
100
AcDbProxyObject
 90
      499
 91
      503
 95
  1310743
 70
     1
100
AcDbScale
 70
     0
300
1:100
140
1.0
141
100.0
290
     0
  0
ACAD_PROXY_OBJECT
  5
5F41
102
{ACAD_REACTORS
330
5F34
102
}
330
5F34
100
AcDbProxyObject
 90
      499
 91
      503
 95
  1310743
 70
     1
100
AcDbScale
 70
     0
300
2:1
140
2.0
141
1.0
290
     0
  0
ACAD_PROXY_OBJECT
  5
5F42
102
{ACAD_REACTORS
330
5F34
102
}
330
5F34
100
AcDbProxyObject
 90
      499
 91
      503
 95
  1310743
 70
     1
100
AcDbScale
 70
     0
300
4:1
140
4.0
141
1.0
290
     0
  0
ACAD_PROXY_OBJECT
  5
5F43
102
{ACAD_REACTORS
330
5F34
102
}
330
5F34
100
AcDbProxyObject
 90
      499
 91
      503
 95
  1310743
 70
     1
100
AcDbScale
 70
     0
300
8:1
140
8.0
141
1.0
290
     0
  0
ACAD_PROXY_OBJECT
  5
5F44
102
{ACAD_REACTORS
330
5F34
102
}
330
5F34
100
AcDbProxyObject
 90
      499
 91
      503
 95
  1310743
 70
     1
100
AcDbScale
 70
     0
300
10:1
140
10.0
141
1.0
290
     0
  0
ACAD_PROXY_OBJECT
  5
5F45
102
{ACAD_REACTORS
330
5F34
102
}
330
5F34
100
AcDbProxyObject
 90
      499
 91
      503
 95
  1310743
 70
     1
100
AcDbScale
 70
     0
300
100:1
140
100.0
141
1.0
290
     0
  0
ACAD_PROXY_OBJECT
  5
5F46
102
{ACAD_REACTORS
330
5F34
102
}
330
5F34
100
AcDbProxyObject
 90
      499
 91
      503
 95
  1310743
 70
     1
100
AcDbScale
 70
     0
300
1/128" = 1'-0"
140
0.0078125
141
12.0
290
     0
  0
ACAD_PROXY_OBJECT
  5
5F47
102
{ACAD_REACTORS
330
5F34
102
}
330
5F34
100
AcDbProxyObject
 90
      499
 91
      503
 95
  1310743
 70
     1
100
AcDbScale
 70
     0
300
1/64" = 1'-0"
140
0.015625
141
12.0
290
     0
  0
ACAD_PROXY_OBJECT
  5
5F48
102
{ACAD_REACTORS
330
5F34
102
}
330
5F34
100
AcDbProxyObject
 90
      499
 91
      503
 95
  1310743
 70
     1
100
AcDbScale
 70
     0
300
1/32" = 1'-0"
140
0.03125
141
12.0
290
     0
  0
ACAD_PROXY_OBJECT
  5
5F49
102
{ACAD_REACTORS
330
5F34
102
}
330
5F34
100
AcDbProxyObject
 90
      499
 91
      503
 95
  1310743
 70
     1
100
AcDbScale
 70
     0
300
1/16" = 1'-0"
140
0.0625
141
12.0
290
     0
  0
ACAD_PROXY_OBJECT
  5
5F4A
102
{ACAD_REACTORS
330
5F34
102
}
330
5F34
100
AcDbProxyObject
 90
      499
 91
      503
 95
  1310743
 70
     1
100
AcDbScale
 70
     0
300
3/32" = 1'-0"
140
0.09375
141
12.0
290
     0
  0
ACAD_PROXY_OBJECT
  5
5F4B
102
{ACAD_REACTORS
330
5F34
102
}
330
5F34
100
AcDbProxyObject
 90
      499
 91
      503
 95
  1310743
 70
     1
100
AcDbScale
 70
     0
300
1/8" = 1'-0"
140
0.125
141
12.0
290
     0
  0
ACAD_PROXY_OBJECT
  5
5F4C
102
{ACAD_REACTORS
330
5F34
102
}
330
5F34
100
AcDbProxyObject
 90
      499
 91
      503
 95
  1310743
 70
     1
100
AcDbScale
 70
     0
300
3/16" = 1'-0"
140
0.1875
141
12.0
290
     0
  0
ACAD_PROXY_OBJECT
  5
5F4D
102
{ACAD_REACTORS
330
5F34
102
}
330
5F34
100
AcDbProxyObject
 90
      499
 91
      503
 95
  1310743
 70
     1
100
AcDbScale
 70
     0
300
1/4" = 1'-0"
140
0.25
141
12.0
290
     0
  0
ACAD_PROXY_OBJECT
  5
5F4E
102
{ACAD_REACTORS
330
5F34
102
}
330
5F34
100
AcDbProxyObject
 90
      499
 91
      503
 95
  1310743
 70
     1
100
AcDbScale
 70
     0
300
3/8" = 1'-0"
140
0.375
141
12.0
290
     0
  0
ACAD_PROXY_OBJECT
  5
5F4F
102
{ACAD_REACTORS
330
5F34
102
}
330
5F34
100
AcDbProxyObject
 90
      499
 91
      503
 95
  1310743
 70
     1
100
AcDbScale
 70
     0
300
1/2" = 1'-0"
140
0.5
141
12.0
290
     0
  0
ACAD_PROXY_OBJECT
  5
5F50
102
{ACAD_REACTORS
330
5F34
102
}
330
5F34
100
AcDbProxyObject
 90
      499
 91
      503
 95
  1310743
 70
     1
100
AcDbScale
 70
     0
300
3/4" = 1'-0"
140
0.75
141
12.0
290
     0
  0
ACAD_PROXY_OBJECT
  5
5F51
102
{ACAD_REACTORS
330
5F34
102
}
330
5F34
100
AcDbProxyObject
 90
      499
 91
      503
 95
  1310743
 70
     1
100
AcDbScale
 70
     0
300
1" = 1'-0"
140
1.0
141
12.0
290
     0
  0
ACAD_PROXY_OBJECT
  5
5F52
102
{ACAD_REACTORS
330
5F34
102
}
330
5F34
100
AcDbProxyObject
 90
      499
 91
      503
 95
  1310743
 70
     1
100
AcDbScale
 70
     0
300
1-1/2" = 1'-0"
140
1.5
141
12.0
290
     0
  0
ACAD_PROXY_OBJECT
  5
5F53
102
{ACAD_REACTORS
330
5F34
102
}
330
5F34
100
AcDbProxyObject
 90
      499
 91
      503
 95
  1310743
 70
     1
100
AcDbScale
 70
     0
300
3" = 1'-0"
140
3.0
141
12.0
290
     0
  0
ACAD_PROXY_OBJECT
  5
5F54
102
{ACAD_REACTORS
330
5F34
102
}
330
5F34
100
AcDbProxyObject
 90
      499
 91
      503
 95
  1310743
 70
     1
100
AcDbScale
 70
     0
300
6" = 1'-0"
140
6.0
141
12.0
290
     0
  0
ACAD_PROXY_OBJECT
  5
5F55
102
{ACAD_REACTORS
330
5F34
102
}
330
5F34
100
AcDbProxyObject
 90
      499
 91
      503
 95
  1310743
 70
     1
100
AcDbScale
 70
     0
300
1'-0" = 1'-0"
140
12.0
141
12.0
290
     0
  0
TABLESTYLE
  5
5F66
102
{ACAD_XDICTIONARY
360
6F6E
102
}
102
{ACAD_REACTORS
330
5F65
102
}
330
5F65
100
AcDbTableStyle
  3
Standard
 70
     0
 71
     0
 40
0.06
 41
0.06
280
     0
281
     0
  7
STANDARD
140
0.18
170
     2
 62
     0
 63
     7
283
     0
274
    -2
284
     1
 64
     0
275
    -2
285
     1
 65
     0
276
    -2
286
     1
 66
     0
277
    -2
287
     1
 67
     0
278
    -2
288
     1
 68
     0
279
    -2
289
     1
 69
     0
  7
STANDARD
140
0.25
170
     5
 62
     0
 63
     7
283
     0
274
    -2
284
     1
 64
     0
275
    -2
285
     1
 65
     0
276
    -2
286
     1
 66
     0
277
    -2
287
     1
 67
     0
278
    -2
288
     1
 68
     0
279
    -2
289
     1
 69
     0
  7
STANDARD
140
0.18
170
     5
 62
     0
 63
     7
283
     0
274
    -2
284
     1
 64
     0
275
    -2
285
     1
 65
     0
276
    -2
286
     1
 66
     0
277
    -2
287
     1
 67
     0
278
    -2
288
     1
 68
     0
279
    -2
289
     1
 69
     0
  0
VISUALSTYLE
  5
5F29
102
{ACAD_REACTORS
330
5F23
102
}
330
5F23
100
AcDbVisualStyle
  2
2dWireframe
 70
     4
 71
     0
 72
     2
 73
     0
 90
        0
 40
-0.6
 41
-30.0
 62
     5
 63
     7
 74
     1
 91
        4
 64
     7
 65
   257
 75
     1
175
     1
 42
1.0
 92
        0
 66
   257
 43
1.0
 76
     1
 77
     6
 78
     2
 67
     7
 79
     5
170
     0
171
     0
290
     0
174
     0
 93
        1
 44
0.0
173
     0
291
     0
 45
0.0
1001
ACAD
1000
AcDbSavedByObjectVersion
1070
     0
1000
AcDbSavedByObjectVersion
1070
     0
1000
AcDbSavedByObjectVersion
1070
     0
1000
AcDbSavedByObjectVersion
1070
     0
1000
AcDbSavedByObjectVersion
1070
     0
1000
AcDbSavedByObjectVersion
1070
     0
1000
AcDbSavedByObjectVersion
1070
     0
  0
VISUALSTYLE
  5
5F2B
102
{ACAD_REACTORS
330
5F23
102
}
330
5F23
100
AcDbVisualStyle
  2
3D Hidden
 70
     6
 71
     1
 72
     2
 73
     2
 90
        0
 40
-0.6
 41
-30.0
 62
     5
 63
     7
 74
     2
 91
        2
 64
     7
 65
   257
 75
     2
175
     1
 42
40.0
 92
        0
 66
   257
 43
1.0
 76
     1
 77
     6
 78
     2
 67
     7
 79
     3
170
     0
171
     0
290
     0
174
     0
 93
        1
 44
0.0
173
     0
291
     0
 45
0.0
1001
ACAD
1000
AcDbSavedByObjectVersion
1070
     0
1000
AcDbSavedByObjectVersion
1070
     0
1000
AcDbSavedByObjectVersion
1070
     0
1000
AcDbSavedByObjectVersion
1070
     0
1000
AcDbSavedByObjectVersion
1070
     0
1000
AcDbSavedByObjectVersion
1070
     0
1000
AcDbSavedByObjectVersion
1070
     0
  0
VISUALSTYLE
  5
5F2A
102
{ACAD_REACTORS
330
5F23
102
}
330
5F23
100
AcDbVisualStyle
  2
3dWireframe
 70
     5
 71
     0
 72
     2
 73
     0
 90
        0
 40
-0.6
 41
-30.0
 62
     5
 63
     7
 74
     1
 91
        4
 64
     7
 65
   257
 75
     1
175
     1
 42
1.0
 92
        0
 66
   257
 43
1.0
 76
     1
 77
     6
 78
     2
 67
     7
 79
     5
170
     0
171
     0
290
     0
174
     0
 93
        1
 44
0.0
173
     0
291
     0
 45
0.0
1001
ACAD
1000
AcDbSavedByObjectVersion
1070
     0
1000
AcDbSavedByObjectVersion
1070
     0
1000
AcDbSavedByObjectVersion
1070
     0
1000
AcDbSavedByObjectVersion
1070
     0
1000
AcDbSavedByObjectVersion
1070
     0
1000
AcDbSavedByObjectVersion
1070
     0
1000
AcDbSavedByObjectVersion
1070
     0
  0
VISUALSTYLE
  5
5F28
102
{ACAD_REACTORS
330
5F23
102
}
330
5F23
100
AcDbVisualStyle
  2
Basic
 70
     7
 71
     1
 72
     0
 73
     1
 90
        0
 40
-0.6
 41
-30.0
 62
     5
 63
     7
 74
     0
 91
        4
 64
     7
 65
   257
 75
     1
175
     1
 42
1.0
 92
        8
 66
     7
 43
1.0
 76
     1
 77
     6
 78
     2
 67
     7
 79
     5
170
     0
171
     0
290
     0
174
     0
 93
        1
 44
0.0
173
     0
291
     1
 45
0.0
1001
ACAD
1000
AcDbSavedByObjectVersion
1070
     0
1000
AcDbSavedByObjectVersion
1070
     0
1000
AcDbSavedByObjectVersion
1070
     0
1000
AcDbSavedByObjectVersion
1070
     0
1000
AcDbSavedByObjectVersion
1070
     0
1000
AcDbSavedByObjectVersion
1070
     0
1000
AcDbSavedByObjectVersion
1070
     0
  0
VISUALSTYLE
  5
5F2F
102
{ACAD_REACTORS
330
5F23
102
}
330
5F23
100
AcDbVisualStyle
  2
Brighten
 70
    12
 71
     2
 72
     2
 73
     0
 90
        0
 40
-0.6
 41
-30.0
 62
     5
 63
     7
 74
     1
 91
        4
 64
     7
 65
   257
 75
     1
175
     1
 42
1.0
 92
        8
 66
     7
 43
1.0
 76
     1
 77
     6
 78
     2
 67
     7
 79
     5
170
     0
171
     0
290
     0
174
     0
 93
        1
 44
50.0
173
     0
291
     1
 45
0.0
1001
ACAD
1000
AcDbSavedByObjectVersion
1070
     0
1000
AcDbSavedByObjectVersion
1070
     0
1000
AcDbSavedByObjectVersion
1070
     0
1000
AcDbSavedByObjectVersion
1070
     0
1000
AcDbSavedByObjectVersion
1070
     0
1000
AcDbSavedByObjectVersion
1070
     0
1000
AcDbSavedByObjectVersion
1070
     0
  0
VISUALSTYLE
  5
5F33
102
{ACAD_REACTORS
330
5F23
102
}
330
5F23
100
AcDbVisualStyle
  2
ColorChange
 70
    16
 71
     2
 72
     2
 73
     3
 90
        0
 40
-0.6
 41
-30.0
 62
     5
 63
     8
 74
     1
 91
        4
 64
     7
 65
   257
 75
     1
175
     1
 42
1.0
 92
        8
 66
     8
 43
1.0
 76
     1
 77
     6
 78
     2
 67
     7
 79
     5
170
     0
171
     0
290
     0
174
     0
 93
        1
 44
0.0
173
     0
291
     1
 45
0.0
1001
ACAD
1000
AcDbSavedByObjectVersion
1070
     0
1000
AcDbSavedByObjectVersion
1070
     0
1000
AcDbSavedByObjectVersion
1070
     0
1000
AcDbSavedByObjectVersion
1070
     0
1000
AcDbSavedByObjectVersion
1070
     0
1000
AcDbSavedByObjectVersion
1070
     0
1000
AcDbSavedByObjectVersion
1070
     0
  0
VISUALSTYLE
  5
5F2C
102
{ACAD_REACTORS
330
5F23
102
}
330
5F23
100
AcDbVisualStyle
  2
Conceptual
 70
     9
 71
     3
 72
     2
 73
     0
 90
        0
 40
-0.6
 41
-30.0
 62
     5
 63
     7
 74
     2
 91
        2
 64
     7
 65
   257
 75
     1
175
     1
 42
40.0
 92
        8
 66
     7
 43
1.0
 76
     1
 77
     6
 78
     2
 67
     7
 79
     3
170
     0
171
     0
290
     0
174
     0
 93
        1
 44
0.0
173
     0
291
     0
 45
0.0
1001
ACAD
1000
AcDbSavedByObjectVersion
1070
     0
1000
AcDbSavedByObjectVersion
1070
     0
1000
AcDbSavedByObjectVersion
1070
     0
1000
AcDbSavedByObjectVersion
1070
     0
1000
AcDbSavedByObjectVersion
1070
     0
1000
AcDbSavedByObjectVersion
1070
     0
1000
AcDbSavedByObjectVersion
1070
     0
  0
VISUALSTYLE
  5
5F2E
102
{ACAD_REACTORS
330
5F23
102
}
330
5F23
100
AcDbVisualStyle
  2
Dim
 70
    11
 71
     2
 72
     2
 73
     0
 90
        0
 40
-0.6
 41
-30.0
 62
     5
 63
     7
 74
     1
 91
        4
 64
     7
 65
   257
 75
     1
175
     1
 42
1.0
 92
        8
 66
     7
 43
1.0
 76
     1
 77
     6
 78
     2
 67
     7
 79
     5
170
     0
171
     0
290
     0
174
     0
 93
        1
 44
-50.0
173
     0
291
     1
 45
0.0
1001
ACAD
1000
AcDbSavedByObjectVersion
1070
     0
1000
AcDbSavedByObjectVersion
1070
     0
1000
AcDbSavedByObjectVersion
1070
     0
1000
AcDbSavedByObjectVersion
1070
     0
1000
AcDbSavedByObjectVersion
1070
     0
1000
AcDbSavedByObjectVersion
1070
     0
1000
AcDbSavedByObjectVersion
1070
     0
  0
VISUALSTYLE
  5
5F32
102
{ACAD_REACTORS
330
5F23
102
}
330
5F23
100
AcDbVisualStyle
  2
Facepattern
 70
    15
 71
     2
 72
     2
 73
     0
 90
        0
 40
-0.6
 41
-30.0
 62
     5
 63
     7
 74
     1
 91
        4
 64
     7
 65
   257
 75
     1
175
     1
 42
1.0
 92
        8
 66
     7
 43
1.0
 76
     1
 77
     6
 78
     2
 67
     7
 79
     5
170
     0
171
     0
290
     0
174
     0
 93
        1
 44
0.0
173
     0
291
     1
 45
0.0
1001
ACAD
1000
AcDbSavedByObjectVersion
1070
     0
1000
AcDbSavedByObjectVersion
1070
     0
1000
AcDbSavedByObjectVersion
1070
     0
1000
AcDbSavedByObjectVersion
1070
     0
1000
AcDbSavedByObjectVersion
1070
     0
1000
AcDbSavedByObjectVersion
1070
     0
1000
AcDbSavedByObjectVersion
1070
     0
  0
VISUALSTYLE
  5
5F24
102
{ACAD_REACTORS
330
5F23
102
}
330
5F23
100
AcDbVisualStyle
  2
Flat
 70
     0
 71
     2
 72
     1
 73
     1
 90
        2
 40
-0.6
 41
30.0
 62
     5
 63
     7
 74
     0
 91
        4
 64
     7
 65
   257
 75
     1
175
     1
 42
1.0
 92
        8
 66
     7
 43
1.0
 76
     1
 77
     6
 78
     2
 67
     7
 79
     5
170
     0
171
     0
290
     0
174
     0
 93
       13
 44
0.0
173
     0
291
     1
 45
0.0
1001
ACAD
1000
AcDbSavedByObjectVersion
1070
     0
1000
AcDbSavedByObjectVersion
1070
     0
1000
AcDbSavedByObjectVersion
1070
     0
1000
AcDbSavedByObjectVersion
1070
     0
1000
AcDbSavedByObjectVersion
1070
     0
1000
AcDbSavedByObjectVersion
1070
     0
1000
AcDbSavedByObjectVersion
1070
     0
  0
VISUALSTYLE
  5
5F25
102
{ACAD_REACTORS
330
5F23
102
}
330
5F23
100
AcDbVisualStyle
  2
FlatWithEdges
 70
     1
 71
     2
 72
     1
 73
     1
 90
        2
 40
-0.6
 41
30.0
 62
     5
 63
     7
 74
     1
 91
        4
 64
     7
 65
   257
 75
     1
175
     1
 42
1.0
 92
        0
 66
   257
 43
1.0
 76
     1
 77
     6
 78
     2
 67
     7
 79
     5
170
     0
171
     0
290
     0
174
     0
 93
       13
 44
0.0
173
     0
291
     1
 45
0.0
1001
ACAD
1000
AcDbSavedByObjectVersion
1070
     0
1000
AcDbSavedByObjectVersion
1070
     0
1000
AcDbSavedByObjectVersion
1070
     0
1000
AcDbSavedByObjectVersion
1070
     0
1000
AcDbSavedByObjectVersion
1070
     0
1000
AcDbSavedByObjectVersion
1070
     0
1000
AcDbSavedByObjectVersion
1070
     0
  0
VISUALSTYLE
  5
5F26
102
{ACAD_REACTORS
330
5F23
102
}
330
5F23
100
AcDbVisualStyle
  2
Gouraud
 70
     2
 71
     2
 72
     2
 73
     1
 90
        2
 40
-0.6
 41
30.0
 62
     5
 63
     7
 74
     0
 91
        4
 64
     7
 65
   257
 75
     1
175
     1
 42
1.0
 92
        0
 66
     7
 43
1.0
 76
     1
 77
     6
 78
     2
 67
     7
 79
     5
170
     0
171
     0
290
     0
174
     0
 93
       13
 44
0.0
173
     0
291
     1
 45
0.0
1001
ACAD
1000
AcDbSavedByObjectVersion
1070
     0
1000
AcDbSavedByObjectVersion
1070
     0
1000
AcDbSavedByObjectVersion
1070
     0
1000
AcDbSavedByObjectVersion
1070
     0
1000
AcDbSavedByObjectVersion
1070
     0
1000
AcDbSavedByObjectVersion
1070
     0
1000
AcDbSavedByObjectVersion
1070
     0
  0
VISUALSTYLE
  5
5F27
102
{ACAD_REACTORS
330
5F23
102
}
330
5F23
100
AcDbVisualStyle
  2
GouraudWithEdges
 70
     3
 71
     2
 72
     2
 73
     1
 90
        2
 40
-0.6
 41
30.0
 62
     5
 63
     7
 74
     1
 91
        4
 64
     7
 65
   257
 75
     1
175
     1
 42
1.0
 92
        0
 66
   257
 43
1.0
 76
     1
 77
     6
 78
     2
 67
     7
 79
     5
170
     0
171
     0
290
     0
174
     0
 93
       13
 44
0.0
173
     0
291
     1
 45
0.0
1001
ACAD
1000
AcDbSavedByObjectVersion
1070
     0
1000
AcDbSavedByObjectVersion
1070
     0
1000
AcDbSavedByObjectVersion
1070
     0
1000
AcDbSavedByObjectVersion
1070
     0
1000
AcDbSavedByObjectVersion
1070
     0
1000
AcDbSavedByObjectVersion
1070
     0
1000
AcDbSavedByObjectVersion
1070
     0
  0
VISUALSTYLE
  5
5F31
102
{ACAD_REACTORS
330
5F23
102
}
330
5F23
100
AcDbVisualStyle
  2
Linepattern
 70
    14
 71
     2
 72
     2
 73
     0
 90
        0
 40
-0.6
 41
-30.0
 62
     5
 63
     7
 74
     1
 91
        4
 64
     7
 65
   257
 75
     7
175
     7
 42
1.0
 92
        8
 66
     7
 43
1.0
 76
     1
 77
     6
 78
     2
 67
     7
 79
     5
170
     0
171
     0
290
     0
174
     0
 93
        1
 44
0.0
173
     0
291
     1
 45
0.0
1001
ACAD
1000
AcDbSavedByObjectVersion
1070
     0
1000
AcDbSavedByObjectVersion
1070
     0
1000
AcDbSavedByObjectVersion
1070
     0
1000
AcDbSavedByObjectVersion
1070
     0
1000
AcDbSavedByObjectVersion
1070
     0
1000
AcDbSavedByObjectVersion
1070
     0
1000
AcDbSavedByObjectVersion
1070
     0
  0
VISUALSTYLE
  5
5F2D
102
{ACAD_REACTORS
330
5F23
102
}
330
5F23
100
AcDbVisualStyle
  2
Realistic
 70
     8
 71
     2
 72
     2
 73
     0
 90
        0
 40
-0.6
 41
-30.0
 62
     5
 63
     7
 74
     1
 91
        0
 64
     7
 65
   257
 75
     1
175
     1
 42
1.0
 92
        8
 66
     8
 43
1.0
 76
     1
 77
     6
 78
     2
 67
     7
 79
     5
170
     0
171
     0
290
     0
174
     0
 93
       13
 44
0.0
173
     0
291
     0
 45
0.0
1001
ACAD
1000
AcDbSavedByObjectVersion
1070
     0
1000
AcDbSavedByObjectVersion
1070
     0
1000
AcDbSavedByObjectVersion
1070
     0
1000
AcDbSavedByObjectVersion
1070
     0
1000
AcDbSavedByObjectVersion
1070
     0
1000
AcDbSavedByObjectVersion
1070
     0
1000
AcDbSavedByObjectVersion
1070
     0
  0
VISUALSTYLE
  5
5F30
102
{ACAD_REACTORS
330
5F23
102
}
330
5F23
100
AcDbVisualStyle
  2
Thicken
 70
    13
 71
     2
 72
     2
 73
     0
 90
        0
 40
-0.6
 41
-30.0
 62
     5
 63
     7
 74
     1
 91
        4
 64
     7
 65
   257
 75
     1
175
     1
 42
1.0
 92
       12
 66
     7
 43
1.0
 76
     1
 77
     6
 78
     2
 67
     7
 79
     5
170
     0
171
     0
290
     0
174
     0
 93
        1
 44
0.0
173
     0
291
     1
 45
0.0
1001
ACAD
1000
AcDbSavedByObjectVersion
1070
     0
1000
AcDbSavedByObjectVersion
1070
     0
1000
AcDbSavedByObjectVersion
1070
     0
1000
AcDbSavedByObjectVersion
1070
     0
1000
AcDbSavedByObjectVersion
1070
     0
1000
AcDbSavedByObjectVersion
1070
     0
1000
AcDbSavedByObjectVersion
1070
     0
  0
DICTIONARYVAR
  5
6105
102
{ACAD_REACTORS
330
6102
102
}
330
6102
100
DictionaryVariables
280
     0
  1
1:1
  0
DICTIONARYVAR
  5
6104
102
{ACAD_REACTORS
330
6102
102
}
330
6102
100
DictionaryVariables
280
     0
  1
STANDARD
  0
DICTIONARYVAR
  5
6103
102
{ACAD_REACTORS
330
6102
102
}
330
6102
100
DictionaryVariables
280
     0
  1
STANDARD
  0
DICTIONARYVAR
  5
6108
102
{ACAD_REACTORS
330
6102
102
}
330
6102
100
DictionaryVariables
280
     0
  1
1
  0
DICTIONARYVAR
  5
6107
102
{ACAD_REACTORS
330
6102
102
}
330
6102
100
DictionaryVariables
280
     0
  1
0
  0
DICTIONARYVAR
  5
6106
102
{ACAD_REACTORS
330
6102
102
}
330
6102
100
DictionaryVariables
280
     0
  1
127
  0
VLO-VL
  5
60F3
102
{ACAD_REACTORS
330
60F2
102
}
330
60F2
100
vlo_VL
 90
   -64512
 91
       12
 92
        1
 40
2.5
300
(&VLO-R . 0)
  0
DICTIONARY
  5
5F14
330
5F13
100
AcDbDictionary
280
     1
281
     1
  3
ACAD_XREC_ROUNDTRIP
360
6F73
  3
BUMPTILE
360
5F16
  3
DIFFUSETILE
360
5F15
  3
OPACITYTILE
360
5F19
  3
REFLECTIONTILE
360
5F18
  3
REFRACTIONTILE
360
5F1A
  3
SPECULARTILE
360
5F17
  0
DICTIONARY
  5
5F0C
330
5F0B
100
AcDbDictionary
280
     1
281
     1
  3
ACAD_XREC_ROUNDTRIP
360
6F72
  3
BUMPTILE
360
5F0E
  3
DIFFUSETILE
360
5F0D
  3
OPACITYTILE
360
5F11
  3
REFLECTIONTILE
360
5F10
  3
REFRACTIONTILE
360
5F12
  3
SPECULARTILE
360
5F0F
  0
DICTIONARY
  5
5F1C
330
5F1B
100
AcDbDictionary
280
     1
281
     1
  3
ACAD_XREC_ROUNDTRIP
360
6F74
  3
BUMPTILE
360
5F1E
  3
DIFFUSETILE
360
5F1D
  3
OPACITYTILE
360
5F21
  3
REFLECTIONTILE
360
5F20
  3
REFRACTIONTILE
360
5F22
  3
SPECULARTILE
360
5F1F
  0
DICTIONARY
  5
6F6E
330
5F66
100
AcDbDictionary
280
     1
281
     1
  3
ACAD_ROUNDTRIP_2008_TABLESTYLE_CELLSTYLEMAP
360
8877
  3
ACAD_XREC_ROUNDTRIP
360
89C4
  0
XRECORD
  5
6F73
102
{ACAD_REACTORS
330
5F14
102
}
330
5F14
100
AcDbXrecord
280
     1
102
MATERIAL
148
0.0
149
0.0
149
0.0
 93
        0
 94
       63
282
     0
 72
     0
 77
     0
171
     0
175
     0
179
     0
273
     0
  0
XRECORD
  5
5F16
102
{ACAD_REACTORS
330
5F14
102
}
330
5F14
100
AcDbXrecord
280
     1
270
     1
271
     1
  0
XRECORD
  5
5F15
102
{ACAD_REACTORS
330
5F14
102
}
330
5F14
100
AcDbXrecord
280
     1
270
     1
271
     1
  0
XRECORD
  5
5F19
102
{ACAD_REACTORS
330
5F14
102
}
330
5F14
100
AcDbXrecord
280
     1
270
     1
271
     1
  0
XRECORD
  5
5F18
102
{ACAD_REACTORS
330
5F14
102
}
330
5F14
100
AcDbXrecord
280
     1
270
     1
271
     1
  0
XRECORD
  5
5F1A
102
{ACAD_REACTORS
330
5F14
102
}
330
5F14
100
AcDbXrecord
280
     1
270
     1
271
     1
  0
XRECORD
  5
5F17
102
{ACAD_REACTORS
330
5F14
102
}
330
5F14
100
AcDbXrecord
280
     1
270
     1
271
     1
  0
XRECORD
  5
6F72
102
{ACAD_REACTORS
330
5F0C
102
}
330
5F0C
100
AcDbXrecord
280
     1
102
MATERIAL
148
0.0
149
0.0
149
0.0
 93
        0
 94
       63
282
     0
 72
     0
 77
     0
171
     0
175
     0
179
     0
273
     0
  0
XRECORD
  5
5F0E
102
{ACAD_REACTORS
330
5F0C
102
}
330
5F0C
100
AcDbXrecord
280
     1
270
     1
271
     1
  0
XRECORD
  5
5F0D
102
{ACAD_REACTORS
330
5F0C
102
}
330
5F0C
100
AcDbXrecord
280
     1
270
     1
271
     1
  0
XRECORD
  5
5F11
102
{ACAD_REACTORS
330
5F0C
102
}
330
5F0C
100
AcDbXrecord
280
     1
270
     1
271
     1
  0
XRECORD
  5
5F10
102
{ACAD_REACTORS
330
5F0C
102
}
330
5F0C
100
AcDbXrecord
280
     1
270
     1
271
     1
  0
XRECORD
  5
5F12
102
{ACAD_REACTORS
330
5F0C
102
}
330
5F0C
100
AcDbXrecord
280
     1
270
     1
271
     1
  0
XRECORD
  5
5F0F
102
{ACAD_REACTORS
330
5F0C
102
}
330
5F0C
100
AcDbXrecord
280
     1
270
     1
271
     1
  0
XRECORD
  5
6F74
102
{ACAD_REACTORS
330
5F1C
102
}
330
5F1C
100
AcDbXrecord
280
     1
102
MATERIAL
148
0.0
149
0.0
149
0.0
 93
        0
 94
       63
282
     0
 72
     0
 77
     0
171
     0
175
     0
179
     0
273
     0
  0
XRECORD
  5
5F1E
102
{ACAD_REACTORS
330
5F1C
102
}
330
5F1C
100
AcDbXrecord
280
     1
270
     1
271
     1
  0
XRECORD
  5
5F1D
102
{ACAD_REACTORS
330
5F1C
102
}
330
5F1C
100
AcDbXrecord
280
     1
270
     1
271
     1
  0
XRECORD
  5
5F21
102
{ACAD_REACTORS
330
5F1C
102
}
330
5F1C
100
AcDbXrecord
280
     1
270
     1
271
     1
  0
XRECORD
  5
5F20
102
{ACAD_REACTORS
330
5F1C
102
}
330
5F1C
100
AcDbXrecord
280
     1
270
     1
271
     1
  0
XRECORD
  5
5F22
102
{ACAD_REACTORS
330
5F1C
102
}
330
5F1C
100
AcDbXrecord
280
     1
270
     1
271
     1
  0
XRECORD
  5
5F1F
102
{ACAD_REACTORS
330
5F1C
102
}
330
5F1C
100
AcDbXrecord
280
     1
270
     1
271
     1
  0
ACAD_PROXY_OBJECT
  5
8877
102
{ACAD_REACTORS
330
6F6E
102
}
330
6F6E
100
AcDbProxyObject
 90
      499
 91
      508
 95
  1310743
 70
     1
100
AcDbCellStyleMap
 90
        3
300
CELLSTYLE
  1
TABLEFORMAT_BEGIN
 90
        5
170
     1
 91
        0
 92
    32768
 62
   257
 93
        1
300
CONTENTFORMAT
  1
CONTENTFORMAT_BEGIN
 90
        0
 91
        0
 92
      512
 93
        0
300

 40
0.0
140
1.0
 94
        5
 62
     0
340
5F57
144
0.25
309
CONTENTFORMAT_END
171
     1
301
MARGIN
  1
CELLMARGIN_BEGIN
 40
0.06
 40
0.06
 40
0.06
 40
0.06
 40
0.18
 40
0.18
309
CELLMARGIN_END
 94
        6
 95
        1
302
GRIDFORMAT
  1
GRIDFORMAT_BEGIN
 90
        0
 91
        1
 62
     0
 92
       -2
340
0
 93
        0
 40
0.045
309
GRIDFORMAT_END
 95
        2
302
GRIDFORMAT
  1
GRIDFORMAT_BEGIN
 90
        0
 91
        1
 62
     0
 92
       -2
340
0
 93
        0
 40
0.045
309
GRIDFORMAT_END
 95
        4
302
GRIDFORMAT
  1
GRIDFORMAT_BEGIN
 90
        0
 91
        1
 62
     0
 92
       -2
340
0
 93
        0
 40
0.045
309
GRIDFORMAT_END
 95
        8
302
GRIDFORMAT
  1
GRIDFORMAT_BEGIN
 90
        0
 91
        1
 62
     0
 92
       -2
340
0
 93
        0
 40
0.045
309
GRIDFORMAT_END
 95
       16
302
GRIDFORMAT
  1
GRIDFORMAT_BEGIN
 90
        0
 91
        1
 62
     0
 92
       -2
340
0
 93
        0
 40
0.045
309
GRIDFORMAT_END
 95
       32
302
GRIDFORMAT
  1
GRIDFORMAT_BEGIN
 90
        0
 91
        1
 62
     0
 92
       -2
340
0
 93
        0
 40
0.045
309
GRIDFORMAT_END
309
TABLEFORMAT_END
  1
CELLSTYLE_BEGIN
 90
        1
 91
        1
300
_TITLE
309
CELLSTYLE_END
300
CELLSTYLE
  1
TABLEFORMAT_BEGIN
 90
        5
170
     1
 91
        0
 92
        0
 62
   257
 93
        1
300
CONTENTFORMAT
  1
CONTENTFORMAT_BEGIN
 90
        0
 91
        0
 92
      512
 93
        0
300

 40
0.0
140
1.0
 94
        5
 62
     0
340
5F57
144
0.18
309
CONTENTFORMAT_END
171
     1
301
MARGIN
  1
CELLMARGIN_BEGIN
 40
0.06
 40
0.06
 40
0.06
 40
0.06
 40
0.18
 40
0.18
309
CELLMARGIN_END
 94
        6
 95
        1
302
GRIDFORMAT
  1
GRIDFORMAT_BEGIN
 90
        0
 91
        1
 62
     0
 92
       -2
340
0
 93
        0
 40
0.045
309
GRIDFORMAT_END
 95
        2
302
GRIDFORMAT
  1
GRIDFORMAT_BEGIN
 90
        0
 91
        1
 62
     0
 92
       -2
340
0
 93
        0
 40
0.045
309
GRIDFORMAT_END
 95
        4
302
GRIDFORMAT
  1
GRIDFORMAT_BEGIN
 90
        0
 91
        1
 62
     0
 92
       -2
340
0
 93
        0
 40
0.045
309
GRIDFORMAT_END
 95
        8
302
GRIDFORMAT
  1
GRIDFORMAT_BEGIN
 90
        0
 91
        1
 62
     0
 92
       -2
340
0
 93
        0
 40
0.045
309
GRIDFORMAT_END
 95
       16
302
GRIDFORMAT
  1
GRIDFORMAT_BEGIN
 90
        0
 91
        1
 62
     0
 92
       -2
340
0
 93
        0
 40
0.045
309
GRIDFORMAT_END
 95
       32
302
GRIDFORMAT
  1
GRIDFORMAT_BEGIN
 90
        0
 91
        1
 62
     0
 92
       -2
340
0
 93
        0
 40
0.045
309
GRIDFORMAT_END
309
TABLEFORMAT_END
  1
CELLSTYLE_BEGIN
 90
        2
 91
        1
300
_HEADER
309
CELLSTYLE_END
300
CELLSTYLE
  1
TABLEFORMAT_BEGIN
 90
        5
170
     1
 91
        0
 92
        0
 62
   257
 93
        1
300
CONTENTFORMAT
  1
CONTENTFORMAT_BEGIN
 90
        0
 91
        0
 92
      512
 93
        0
300

 40
0.0
140
1.0
 94
        2
 62
     0
340
5F57
144
0.18
309
CONTENTFORMAT_END
171
     1
301
MARGIN
  1
CELLMARGIN_BEGIN
 40
0.06
 40
0.06
 40
0.06
 40
0.06
 40
0.18
 40
0.18
309
CELLMARGIN_END
 94
        6
 95
        1
302
GRIDFORMAT
  1
GRIDFORMAT_BEGIN
 90
        0
 91
        1
 62
     0
 92
       -2
340
0
 93
        0
 40
0.045
309
GRIDFORMAT_END
 95
        2
302
GRIDFORMAT
  1
GRIDFORMAT_BEGIN
 90
        0
 91
        1
 62
     0
 92
       -2
340
0
 93
        0
 40
0.045
309
GRIDFORMAT_END
 95
        4
302
GRIDFORMAT
  1
GRIDFORMAT_BEGIN
 90
        0
 91
        1
 62
     0
 92
       -2
340
0
 93
        0
 40
0.045
309
GRIDFORMAT_END
 95
        8
302
GRIDFORMAT
  1
GRIDFORMAT_BEGIN
 90
        0
 91
        1
 62
     0
 92
       -2
340
0
 93
        0
 40
0.045
309
GRIDFORMAT_END
 95
       16
302
GRIDFORMAT
  1
GRIDFORMAT_BEGIN
 90
        0
 91
        1
 62
     0
 92
       -2
340
0
 93
        0
 40
0.045
309
GRIDFORMAT_END
 95
       32
302
GRIDFORMAT
  1
GRIDFORMAT_BEGIN
 90
        0
 91
        1
 62
     0
 92
       -2
340
0
 93
        0
 40
0.045
309
GRIDFORMAT_END
309
TABLEFORMAT_END
  1
CELLSTYLE_BEGIN
 90
        3
 91
        2
300
_DATA
309
CELLSTYLE_END
  0
XRECORD
  5
89C4
102
{ACAD_REACTORS
330
6F6E
102
}
330
6F6E
100
AcDbXrecord
280
     1
102
ACAD_ROUNDTRIP_PRE2007_TABLESTYLE
 90
      512
 91
        0
  1

 92
      512
 93
        0
  2

 94
      512
 95
        0
  3

  0
ENDSEC
  0
EOF
